Таймлесс 3: Изумрудная книга / Smaragdgrün (Феликс Фуксштайнер / Felix Fuchssteiner, Катарина Шёде / Katharina Schöde) [2016, Германия, Фэнтези, HDRip] MVO (iTunes) + Original Ger

Reply to topic
 
Author
Message

Satyr ®

Online

Gender: Unknown

Longevity: 10 years

Posts: 14651

Reputation: 54 [+] [-]

Satyr · Post 31-Jan-2017 22:55

[Quote] 

Таймлесс 3: Изумрудная книга / Smaragdgrün- Страна: Германия
Жанр: Фэнтези
Год выпуска: 2016
Продолжительность: 01:52:09-Перевод: Профессиональный (многоголосый закадровый) - iTunes
Оригинальная аудиодорожка: немецкий
Cубтитры: нет-Режиссер: Феликс Фуксштайнер / Felix Fuchssteiner, Катарина Шёде / Katharina Schöde-В ролях: Мария Эрих, Яннис Нивёнер, Лаура Берлин, Йозефина Пройсс, Рольф Канис, Флориан Бартоломай, Руфус Бек, Буц Бузе, Юстина дель Корте, Тимур Исик-Описание: Что делать, если твое сердце разбито, а чувства растоптаны? Часами болтать по телефону с лучшей подругой? Есть шоколад и валяться в кровати, обливаясь слезами? Как жаль, что у Гвендолин совершенно нет на это времени. А все потому, что на семнадцатом году жизни у нее совершенно случайно обнаружился ген путешественника во времени. Голова идет кругом: хронограф, круг крови, Тайна Двенадцати, все эти балы, суаре, схватки и путешествия по темным лабиринтам прошлого, а теперь еще кто-то за ней охотится, и единственное, о чем ей действительно стоит думать, так это о том, чтобы выжить! Все нити ведут в прошлое, к таинственному графу Сен-Жермену, который ведет опасную игру, чтобы заполучить источник вечной жизни. А тут разбитое сердце! Гидеон, кто же ты — друг или враг? Что значат твои признания в любви — шутка, разыгранный как по нотам план графа или все же настоящее чувство? Разгадать все тайны Гвендолин помогут ее верные друзья.- / -Качество видео: HDRip
Формат видео: AVI
Видео: 720х304 (2.35:1), 24.000 fps, XviD, 1835 Kbps, 0.34 Bits/Pixel
Аудио 1: 48 kHz, AC3 Dolby Digital, 2 ch, 384 Kbps [Russ]
Аудио 2: 48 kHz, AC3 Dolby Digital, 3/2 (L,C,R,l,r) + LFE ch, 384 Kbps [Ger]

MediaInfo

General
Complete name : Downloads\TaimLess.3.IZumRud.2O16.P.HDRip.21OOMB.avi
Format : AVI
Format/Info : Audio Video Interleave
Format profile : OpenDML
File size : 2.05 GiB
Duration : 1h 52mn
Overall bit rate : 2 621 Kbps
Writing application : VirtualDubMod 1.5.10.2 (build 2540/release)
Writing library : VirtualDubMod build 2540/release
Video #0
ID : 0
Format : MPEG-4 Visual
Format profile : Advanced Simple@L5
Format settings, BVOP : 2
Format settings, QPel : No
Format settings, GMC : No warppoints
Format settings, Matrix : Default (MPEG)
Codec ID : XVID
Codec ID/Hint : XviD
Duration : 1h 52mn
Bit rate : 1 835 Kbps
Width : 720 pixels
Height : 304 pixels
Display aspect ratio : 2.35:1
Frame rate : 24.000 fps
Color space : YUV
Chroma subsampling : 4:2:0
Bit depth : 8 bits
Scan type : Progressive
Compression mode : Lossy
Bits/(Pixel*Frame) : 0.349
Stream size : 1.44 GiB (70%)
Writing library : XviD 1.2.1 (UTC 2008-12-04)
Audio #1
ID : 1
Format : AC-3
Format/Info : Audio Coding 3
Mode extension : CM (complete main)
Format settings, Endianness : Big
Codec ID : 2000
Duration : 1h 52mn
Bit rate mode : Constant
Bit rate : 384 Kbps
Channel(s) : 2 channels
Channel positions : Front: L R
Sampling rate : 48.0 KHz
Bit depth : 16 bits
Compression mode : Lossy
Stream size : 308 MiB (15%)
Alignment : Split accross interleaves
Interleave, duration : 42 ms (1.00 video frame)
Interleave, preload duration : 500 ms
Audio #2
ID : 2
Format : AC-3
Format/Info : Audio Coding 3
Mode extension : CM (complete main)
Format settings, Endianness : Big
Codec ID : 2000
Duration : 1h 52mn
Bit rate mode : Constant
Bit rate : 384 Kbps
Channel(s) : 6 channels
Channel positions : Front: L C R, Side: L R, LFE
Sampling rate : 48.0 KHz
Bit depth : 16 bits
Compression mode : Lossy
Stream size : 308 MiB (15%)
Alignment : Split accross interleaves
Interleave, duration : 42 ms (1.00 video frame)
Interleave, preload duration : 500 ms

Скриншот c названием фильма

Скриншоты

[Profile]  [PM] 
Display posts:    
Reply to topic

Current time is: 15-Dec 05:02

All times are UTC + 2



You cannot post new topics in this forum
You cannot reply to topics in this forum
You cannot edit your posts in this forum
You cannot delete your posts in this forum
You cannot vote in polls in this forum
You cannot attach files in this forum
You cannot download files in this forum