Пассажиры / Passengers (Мортен Тильдум / Morten Tyldum) [2016, США, фантастика, драма, мелодрама, WEB-DLRip-AVC] Dub + Original + Sub (rus, eng)

Reply to topic
 
Author
Message

Satyr ®

Gender: Unknown

Longevity: 11 years

Posts: 15401

Reputation: 55 [+] [-]

Satyr · Post 23-Feb-2017 10:35

[Quote] 

Пассажиры / Passengers«Ничто не случайно»- Страна: США
Жанр: фантастика, драма, мелодрама, приключения
Год выпуска: 2016
Продолжительность: 01:56:09
Перевод: Профессиональный (дублированный) (iTunes)
Оригинальная аудиодорожка: английский
Субтитры: русские (форс., полные) английские (полные)
Навигация по главам: есть
Режиссер: Мортен Тильдум / Morten Tyldum
В ролях: Дженнифер Лоуренс (Aurora Lane), Крис Пратт (Jim Preston), Майкл Шин (Arthur), Лоренс Фишбёрн (Gus Mancuso), Энди Гарсиа (Captain Norris), Винс Фостер (Executive Officer), Кара Мишель Уайлдер (Communications Officer), Конор Брофи (Crew Member), Джули Серда (Instructor (Hologram)), Аврора Перрино (Best Friend), Лорен Фармер (Party Friend), Emerald Mayne (Party Friend)
Описание: Космический корабль с 5,000 пассажиров на борту, погруженных на время полета в искусственный сон, держит курс на планету, которая станет для них новым домом. Всё идет по плану, но из-за сбоя системы двое пассажиров неожиданно просыпаются и понимают, что до конечного пункта путешествия - 90 лет пути, и им суждено остаток жизни провести вдвоем в роскошных интерьерах корабля, оснащенного по последнему слову техники. Постепенно Джима и Аврору начинает непреодолимо тянуть друг к другу, но корабль попадает в беду, и теперь в их руках - жизнь и судьба всех обитателей корабля.- -Качество: WEB-DLRip-AVC (исходник - Passengers.2016.1080p.WEB-DL.DD5.1.H264-FGT)
Формат видео: MKV
Видео: x264, 1128x470 (2.40:1) 23,976 fps, ~1676 kbps, 0.132 bit/pixel
Аудио 1: 48 kHz, AC3 Dolby Digital, 3/2 (L,C,R,l,r) + LFE ch, ~384 kbps [русский]
Аудио 2: 48 kHz, AC3 Dolby Digital, 3/2 (L,C,R,l,r) + LFE ch, ~384 kbps [английский]
Формат субтитров: softsub (SRT)-

MediaInfo | x264 log

Format : Matroska
Format version : Version 4 / Version 2
File size : 2.02 GiB
Duration : 1 h 56 min
Overall bit rate : 2 494 kb/s
Movie name : Пассажиры / Passengers (2016) :: AFM ::
Encoded date : UTC 2017-02-23 01:13:25
Writing application : mkvmerge v8.3.0 ('Over the Horizon') 32bit
Writing library : libebml v1.3.1 + libmatroska v1.4.2
Video
ID : 1
Format : AVC
Format/Info : Advanced Video Codec
Format profile : High@L4.1
Format settings, CABAC : Yes
Format settings, ReFrames : 10 frames
Codec ID : V_MPEG4/ISO/AVC
Duration : 1 h 56 min
Bit rate : 1 677 kb/s
Width : 1 128 pixels
Height : 470 pixels
Display aspect ratio : 2.40:1
Frame rate mode : Constant
Frame rate : 23.976 (24000/1001) FPS
Color space : YUV
Chroma subsampling : 4:2:0
Bit depth : 8 bits
Scan type : Progressive
Bits/(Pixel*Frame) : 0.132
Stream size : 1.36 GiB (67%)
Title : WEB-DLRip by AFM
Writing library : x264 core 148 r2762+56 6284cf3 t_mod_Custom [8-bit@all X86_64]
Encoding settings : cabac=1 / ref=10 / deblock=1:-2:-2 / analyse=0x3:0x113 / me=umh / subme=10 / psy=1 / fade_compensate=0.00 / psy_rd=1.00:0.00 / mixed_ref=1 / me_range=32 / chroma_me=1 / trellis=2 / 8x8dct=1 / cqm=0 / deadzone=21,11 / fast_pskip=0 / chroma_qp_offset=-2 / threads=6 / lookahead_threads=1 / sliced_threads=0 / nr=0 / decimate=1 / interlaced=0 / bluray_compat=0 / constrained_intra=0 / fgo=0 / bframes=10 / b_pyramid=2 / b_adapt=2 / b_bias=0 / direct=1 / weightb=1 / open_gop=0 / weightp=2 / keyint=240 / keyint_min=23 / scenecut=40 / intra_refresh=0 / rc_lookahead=60 / rc=crf / mbtree=0 / crf=18.5000 / qcomp=0.65 / qpmin=0:0:0 / qpmax=69:69:69 / qpstep=4 / vbv_maxrate=50000 / vbv_bufsize=62500 / crf_max=0.0 / nal_hrd=none / filler=0 / ip_ratio=1.35 / pb_ratio=1.30 / aq=3:0.80 / aq-sensitivity=10.00 / aq-factor=1.00:1.00:1.00 / aq2=0 / aq3=0 / zones=157450,167097,q=30
Language : English
Default : Yes
Forced : No
Audio #1
ID : 2
Format : AC-3
Format/Info : Audio Coding 3
Mode extension : CM (complete main)
Format settings, Endianness : Big
Codec ID : A_AC3
Duration : 1 h 56 min
Bit rate mode : Constant
Bit rate : 384 kb/s
Channel(s) : 6 channels
Channel positions : Front: L C R, Side: L R, LFE
Sampling rate : 48.0 kHz
Frame rate : 31.250 FPS (1536 spf)
Compression mode : Lossy
Stream size : 319 MiB (15%)
Title : Dub, AC3 5.1 ~384 kbps
Language : Russian
Default : Yes
Forced : No
Audio #2
ID : 3
Format : AC-3
Format/Info : Audio Coding 3
Mode extension : CM (complete main)
Format settings, Endianness : Big
Codec ID : A_AC3
Duration : 1 h 56 min
Bit rate mode : Constant
Bit rate : 384 kb/s
Channel(s) : 6 channels
Channel positions : Front: L C R, Side: L R, LFE
Sampling rate : 48.0 kHz
Frame rate : 31.250 FPS (1536 spf)
Compression mode : Lossy
Stream size : 319 MiB (15%)
Title : Original, AC3 5.1 ~384 kbps
Language : English
Default : No
Forced : No
Text #1
ID : 4
Format : UTF-8
Codec ID : S_TEXT/UTF8
Codec ID/Info : UTF-8 Plain Text
Title : forced
Language : Russian
Default : Yes
Forced : Yes
Text #2
ID : 5
Format : UTF-8
Codec ID : S_TEXT/UTF8
Codec ID/Info : UTF-8 Plain Text
Language : Russian
Default : No
Forced : No
Text #3
ID : 6
Format : UTF-8
Codec ID : S_TEXT/UTF8
Codec ID/Info : UTF-8 Plain Text
Language : English
Default : No
Forced : No
Menu
00:00:00.000 : en:1
00:07:03.673 : en:2
00:14:37.209 : en:3
00:20:32.647 : en:4
00:25:05.336 : en:5
00:30:29.660 : en:6
00:40:46.985 : en:7
00:50:22.018 : en:8
00:57:27.943 : en:9
01:02:53.810 : en:10
01:10:46.157 : en:11
01:17:47.661 : en:12
01:25:16.026 : en:13
01:31:44.039 : en:14
01:37:52.240 : en:15
01:42:17.546 : en:16

x264

x264 [info]: frame I:1669 Avg QP:16.80 size: 53916
x264 [info]: frame P:42340 Avg QP:18.14 size: 18442
x264 [info]: frame B:123088 Avg QP:20.92 size: 5129
x264 [info]: consecutive B-frames: 2.2% 3.5% 6.3% 68.4% 5.6% 8.2% 0.9% 4.6% 0.2% 0.1% 0.1%
x264 [info]: mb I I16..4: 6.8% 68.0% 25.3%
x264 [info]: mb P I16..4: 1.0% 8.7% 1.5% P16..4: 37.9% 27.7% 13.6% 0.0% 0.0% skip: 9.6%
x264 [info]: mb B I16..4: 0.1% 0.9% 0.2% B16..8: 36.2% 9.4% 2.2% direct: 4.2% skip:46.8% L0:39.2% L1:47.1% BI:13.7%
x264 [info]: 8x8 transform intra:75.0% inter:63.1%
x264 [info]: coded y,uvDC,uvAC intra: 82.0% 82.4% 56.2% inter: 15.8% 13.1% 2.1%
x264 [info]: i16 v,h,dc,p: 20% 16% 6% 58%
x264 [info]: i8 v,h,dc,ddl,ddr,vr,hd,vl,hu: 17% 13% 6% 8% 11% 11% 11% 11% 12%
x264 [info]: i4 v,h,dc,ddl,ddr,vr,hd,vl,hu: 17% 12% 4% 9% 13% 12% 12% 9% 11%
x264 [info]: i8c dc,h,v,p: 34% 27% 22% 17%
x264 [info]: Weighted P-Frames: Y:4.7% UV:3.1%
x264 [info]: ref P L0: 52.7% 9.1% 17.3% 6.0% 4.7% 3.2% 2.8% 1.5% 1.4% 1.3% 0.1% 0.0%
x264 [info]: ref B L0: 78.2% 10.3% 4.6% 2.3% 1.6% 1.3% 1.0% 0.5% 0.3%
x264 [info]: ref B L1: 95.6% 4.4%
x264 [info]: kb/s:1724.31

Скриншоты

с названием

[Profile]  [PM] 
Display posts:    
Reply to topic

Current time is: 28-Nov 09:47

All times are UTC + 2



You cannot post new topics in this forum
You cannot reply to topics in this forum
You cannot edit your posts in this forum
You cannot delete your posts in this forum
You cannot vote in polls in this forum
You cannot attach files in this forum
You cannot download files in this forum