АвтоСкандинавия (Владимир Бань) [2006, Россия, документальный, 2xDVD5] Original Rus

Reply to topic
 
Author
Message

Atila ®

Gender: Unknown

Longevity: 7 years 5 months

Posts: 2505

Reputation: 0 [+] [-]

Atila · Post 07-Jul-2018 11:45

[Quote] 

АвтоСкандинавия
Страна: Россия
Жанр: документальный
Год выпуска: 2006
Продолжительность: 150 мин.
Перевод: Не требуется
Субтитры: нет
Оригинальная аудиодорожка: русская
Режиссер: Владимир Бань
В ролях: Владимир Бань, Екатерина
Описание: Вы собираетесь в автопутешествие? Предлагаем вам маршрут, который, быть может, сделает путь более насыщенным и интересным. Это маршрут по странам Скандинавии. Взгляд через стекло автомобиля на ухоженные автомагистрали Хельсинки, уютные набережные Стокгольма, узкие улочки Копенгагена и подземные дороги Осло. Словом на все то, о чем гуляет слава скандинавского края. Вы получите массу полезной информации: узнаете об особенностях автомобильного движения в каждой стране, о стоимости проживания в автокемпингах и множество полезных советов от журналистов телеканала "Драйв".
Меню: есть, статичное
Тип релиза: 2xDVD5
Контейнер: DVD-Video
Видео: PAL 4:3 (720x576(0.660)) MPEG Video, 25,000 кадр/сек, 6839 Кбит/сек
Аудио: Russian (Dolby AC-3, 2 ch) 224 Кбит/сек, 48.0 КГц

Доп. информация по релизу

Диск 1: Таллин-Хельсинки, Финляндия, Финляндия-Швеция
Диск 2: Швеция-Норвегия, Норвегия, Норвегия-Швеция
Это полная лицензия диска, который выходил на DVD9. С помощью программы DVDFab он был "распилен" на 2xDVD5.

MediaInfo

Общее
Полное имя : АвтоСкандинавия\Disc_1\VIDEO_TS\VTS_01_1.VOB
Формат : MPEG-PS
Размер файла : 1024 Мбайт
Продолжительность : 19 м. 51 с.
Режим общего битрейта : Переменный
Общий поток : 7207 Кбит/сек
Библиотека кодирования : (c) 1997-2004 Womble Multimedia, Inc. / MPEG Video Wizard (07/2004) / Oct 20 2004
Видео
Идентификатор : 224 (0xE0)
Формат : MPEG Video
Версия формата : Version 2
Профиль формата : Main@Main
Настройки формата : BVOP
Параметр BVOP формата : Да
Параметр матрицы формата : По умолчанию
Параметр GOP формата : Variable
Структура изображения : Frame
Продолжительность : 19 м. 51 с.
Вид битрейта : Переменный
Битрейт : 6839 Кбит/сек
Максимальный битрейт : 8500 Кбит/сек
Ширина : 720 пикселей
Высота : 576 пикселей
Соотношение сторон : 4:3
Частота кадров : 25,000 кадров/сек
Стандарт вещания : PAL
Цветовое пространство : YUV
Субдискретизация насыщенности : 4:2:0
Битовая глубина : 8 бит
Тип развёртки : Чересстрочная
Порядок развёртки : Верхнее поле первое
Метод сжатия : С потерями
Бит/(Пиксели*Кадры) : 0.660
Временной код первого кадра : 00:00:00:00
Оригинал временного кода : Group of pictures header
GOP, открыто/закрыто : Открыто
GOP, открыто/закрыто на первом кадре : Закрыто
Размер потока : 972 Мбайт (95%)
Библиотека кодирования : (c) 1997-2004 Womble Multimedia, Inc. / MPEG Video Wizard (07/2004) / Oct 20 2004
Аудио
Идентификатор : 189 (0xBD)-128 (0x80)
Формат : AC-3
Формат/Информация : Audio Coding 3
Режим смешивания : DVD-Video
Продолжительность : 5 с. 504 мс.
Вид битрейта : Постоянный
Битрейт : 224 Кбит/сек
Каналы : 2 канала
Расположение каналов : Front: L R
Частота : 48,0 КГц
Частота кадров : 31,250 кадров/сек (1536 SPF)
Битовая глубина : 16 бит
Метод сжатия : С потерями
Размер потока : 151 Кбайт (0%)
ServiceKind/String : Complete Main

Скриншоты меню

Скриншоты

[Profile]  [PM] 
Display posts:    
Reply to topic

Current time is: 07-Dec 23:15

All times are UTC + 2



You cannot post new topics in this forum
You cannot reply to topics in this forum
You cannot edit your posts in this forum
You cannot delete your posts in this forum
You cannot vote in polls in this forum
You cannot attach files in this forum
You cannot download files in this forum