Хроники Центра им. М.В. Хруничева (Эдуард Ромишевский) [2010, Документальный, DVD5]

Reply to topic
 
Author
Message

Atila ®

Gender: Unknown

Longevity: 7 years 7 months

Posts: 2530

Reputation: 0 [+] [-]

Atila · Post 22-Sep-2018 07:55

[Quote] 

Хроники Центра им. М.В. Хруничева
Год выпуска: 2010
Страна: Россия
Жанр: Документальный
Продолжительность: 00:57:32
Перевод: Не требуется
Русские субтитры: нет
Режиссер: Эдуард Ромишевский
Описание: В истории Космического Центра им. М.В. Хруничева есть два исторических периода: первый - создание самолётов, второй - ракет. Наш фильм рассказывает о разработке и судьбе самого засекреченного проекта В.М. Мясищева - М50, который намного обогнал своё время, и о широко известных, но до сих пор окружённых многочисленными вопросами, событиях, связанных с затоплением станции "Мир" и запуске первых блоков МКС.
Бонусы:
1. Интервью с В.Л. Ивановым
2. Смотрите на DVD
Главы (разбивка по трекам): есть
Качество: DVD5
Формат: DVD Video
Видео кодек: MPEG2
Аудио кодек: AC3
Видео: PAL 16:9 (720x576) VBR, 25.000 fps
Аудио: Russian (Dolby AC3, 2 ch) 192 Kbps, 48.0 KHz

DVDInfo

Title: DVD_VIDEOSize: 3.04 Gb ( 3 186 242,00 KBytes ) - DVD-5Enabled regions: 1, 2, 3, 4, 5, 6, 7, 8
VTS_01 : Play Length: 00:00:10 Video: PAL 16:9 (720x576) VBR, Auto Letterboxed
VTS_02 : Play Length: 00:00:21 Video: PAL 16:9 (720x576) VBR, Auto Letterboxed Audio: Russian (Dolby AC3, 6 ch)
VTS_03 : Play Length: 00:26:24 Video: PAL 16:9 (720x576) VBR, Auto Letterboxed Audio: Russian (Dolby AC3, 2 ch)
VTS_04 : Play Length: 00:30:08 Video: PAL 16:9 (720x576) VBR, Auto Letterboxed Audio: Russian (Dolby AC3, 2 ch)
VTS_05 : Play Length: 00:04:42 Video: PAL 16:9 (720x576) VBR, Auto Letterboxed Audio: Russian (Dolby AC3, 2 ch)
VTS_06 : Play Length: 00:02:03 Video: PAL 4:3 (720x576) VBR Audio: Russian (Dolby AC3, 6 ch)
VTS_07 : Play Length: 00:01:41 Video: PAL 4:3 (720x576) VBR Audio: Russian (Dolby AC3, 2 ch)
VTS_08 : Play Length: 00:01:30 Video: PAL 4:3 (720x576) VBR Audio: Russian (Dolby AC3, 2 ch)
* Menus Information *
VIDEO_TS MenuVideo: PAL 16:9 (720x576) VBR Auto Pan&Scan, Auto LetterboxedEnglish Language Unit : Title Menu
VTS_01 MenuVideo: PAL 16:9 (720x576) VBR Auto LetterboxedAudio: Not specified (Dolby AC3, 2 ch)English Language Unit : Root Menu
VTS_02 MenuVideo: PAL 4:3 (720x576) VBREnglish Language Unit : Root Menu
VTS_03 MenuVideo: PAL 4:3 (720x576) VBREnglish Language Unit : Root Menu
VTS_04 MenuVideo: PAL 4:3 (720x576) VBREnglish Language Unit : Root Menu
VTS_05 MenuVideo: PAL 4:3 (720x576) VBREnglish Language Unit : Root Menu
VTS_06 MenuVideo: PAL 4:3 (720x576) VBREnglish Language Unit : Root Menu
VTS_07 MenuVideo: PAL 4:3 (720x576) VBREnglish Language Unit : Root Menu
VTS_08 MenuVideo: PAL 4:3 (720x576) VBREnglish Language Unit : Root Menu

MediaInfo

GeneralComplete name                            : E:\Хроники центра им. М.В. Хруничева\DVD_VIDEO\VIDEO_TS\VTS_04_0.IFOFormat                                   : DVD VideoFormat profile                           : ProgramFile size                                : 34.0 KiBDuration                                 : 30 min 8 sOverall bit rate mode                    : VariableOverall bit rate                         : 154 b/s
VideoID : 224 (0xE0)Format : MPEG VideoFormat version : Version 2Duration : 30 min 8 sBit rate mode : VariableWidth : 720 pixelsHeight : 576 pixelsDisplay aspect ratio : 16:9Frame rate : 25.000 FPSStandard : PALCompression mode : Lossy
AudioID : 128 (0x80)Format : AC-3Format/Info : Audio Coding 3Duration : 30 min 8 sChannel(s) : 2 channelsSampling rate : 48.0 kHzCompression mode : LossyLanguage : Russian
MenuDuration : 30 min 8 s00:00:00.000 : Chapter 100:02:51.080 : Chapter 200:14:04.400 : Chapter 300:21:43.840 : Chapter 400:28:10.320 : Chapter 500:30:08.360 : Chapter 6List (Audio) : 0
GeneralComplete name : E:\Хроники центра им. М.В. Хруничева\DVD_VIDEO\VIDEO_TS\VTS_08_0.VOBFormat : MPEG-PSFile size : 154 KiBDuration : 600 msOverall bit rate : 2 103 kb/s
VideoID : 224 (0xE0)Format : MPEG VideoFormat version : Version 2Format profile : Main@MainFormat settings : CustomMatrix / BVOPFormat settings, BVOP : YesFormat settings, Matrix : CustomFormat settings, picture structure : FrameDuration : 600 msBit rate mode : ConstantMaximum bit rate : 2 000 kb/sWidth : 720 pixelsHeight : 576 pixelsDisplay aspect ratio : 4:3Frame rate : 25.000 FPSStandard : PALColor space : YUVChroma subsampling : 4:2:0Bit depth : 8 bitsScan type : InterlacedScan order : Top Field FirstCompression mode : LossyTime code of first frame : 00:00:00:00Time code source : Group of pictures header
TextID : 189 (0xBD)-32 (0x20)Format : RLEFormat/Info : Run-length encodingMuxing mode : DVD-Video
Menu
GeneralComplete name : E:\Хроники центра им. М.В. Хруничева\DVD_VIDEO\VIDEO_TS\VTS_01_0.VOBFormat : MPEG-PSFile size : 30.5 MiBDuration : 20 s 0 msOverall bit rate mode : VariableOverall bit rate : 12.8 Mb/s
VideoID : 224 (0xE0)Format : MPEG VideoFormat version : Version 2Format profile : High@HighFormat settings : BVOPFormat settings, BVOP : YesFormat settings, Matrix : DefaultFormat settings, GOP : M=3, N=12Format settings, picture structure : FrameDuration : 20 s 0 msBit rate mode : VariableBit rate : 12.3 Mb/sMaximum bit rate : 6 000 kb/sWidth : 720 pixelsHeight : 576 pixelsDisplay aspect ratio : 16:9Frame rate : 25.000 FPSStandard : PALColor space : YUVChroma subsampling : 4:2:0Bit depth : 8 bitsScan type : InterlacedScan order : Top Field FirstCompression mode : LossyBits/(Pixel*Frame) : 1.184Time code of first frame : 00:00:00:00Time code source : Group of pictures headerGOP, Open/Closed : OpenGOP, Open/Closed of first frame : ClosedStream size : 29.3 MiB (96%)
AudioID : 189 (0xBD)-128 (0x80)Format : AC-3Format/Info : Audio Coding 3Muxing mode : DVD-VideoDuration : 19 s 968 msBit rate mode : ConstantBit rate : 256 kb/sChannel(s) : 2 channelsChannel positions : Front: L RSampling rate : 48.0 kHzFrame rate : 31.250 FPS (1536 SPF)Bit depth : 16 bitsCompression mode : LossyStream size : 624 KiB (2%)Service kind : Complete Main
Text #1ID : 189 (0xBD)-32 (0x20)Format : RLEFormat/Info : Run-length encodingMuxing mode : DVD-Video
Text #2ID : 189 (0xBD)-33 (0x21)Format : RLEFormat/Info : Run-length encodingMuxing mode : DVD-Video
Menu
GeneralComplete name : E:\Хроники центра им. М.В. Хруничева\DVD_VIDEO\VIDEO_TS\VTS_06_0.BUPFormat : DVD VideoFormat profile : ProgramFile size : 18.0 KiBDuration : 2 min 3 sOverall bit rate mode : VariableOverall bit rate : 1 190 b/sFileExtension_Invalid : ifo
VideoID : 224 (0xE0)Format : MPEG VideoFormat version : Version 2Duration : 2 min 3 sBit rate mode : VariableWidth : 720 pixelsHeight : 576 pixelsDisplay aspect ratio : 4:3Frame rate : 25.000 FPSStandard : PALCompression mode : Lossy
AudioID : 128 (0x80)Format : AC-3Format/Info : Audio Coding 3Duration : 2 min 3 sChannel(s) : 6 channelsSampling rate : 48.0 kHzCompression mode : LossyLanguage : Russian
MenuDuration : 2 min 3 s00:00:00.000 : Chapter 1List (Audio) : 0
GeneralComplete name : E:\Хроники центра им. М.В. Хруничева\DVD_VIDEO\VIDEO_TS\VTS_01_0.IFOFormat : DVD VideoFormat profile : ProgramFile size : 20.0 KiBDuration : 10 s 0 msOverall bit rate mode : VariableOverall bit rate : 16.4 kb/s
VideoID : 224 (0xE0)Format : MPEG VideoFormat version : Version 2Duration : 10 s 0 msBit rate mode : VariableWidth : 720 pixelsHeight : 576 pixelsDisplay aspect ratio : 16:9Frame rate : 25.000 FPSStandard : PALCompression mode : Lossy
Audio #1Format : AC-3Format/Info : Audio Coding 3Duration : 10 s 0 msChannel(s) : 6 channelsSampling rate : 48.0 kHzCompression mode : LossyLanguage : English
Audio #2Format : AC-3Format/Info : Audio Coding 3Duration : 10 s 0 msChannel(s) : 6 channelsSampling rate : 48.0 kHzCompression mode : LossyLanguage : English
Audio #3Format : AC-3Format/Info : Audio Coding 3Duration : 10 s 0 msChannel(s) : 6 channelsSampling rate : 48.0 kHzCompression mode : LossyLanguage : English
Audio #4Format : AC-3Format/Info : Audio Coding 3Duration : 10 s 0 msChannel(s) : 6 channelsSampling rate : 48.0 kHzCompression mode : LossyLanguage : English
Audio #5Format : AC-3Format/Info : Audio Coding 3Duration : 10 s 0 msChannel(s) : 6 channelsSampling rate : 48.0 kHzCompression mode : LossyLanguage : English
Audio #6Format : AC-3Format/Info : Audio Coding 3Duration : 10 s 0 msChannel(s) : 6 channelsSampling rate : 48.0 kHzCompression mode : LossyLanguage : English
Audio #7Format : AC-3Format/Info : Audio Coding 3Duration : 10 s 0 msChannel(s) : 6 channelsSampling rate : 48.0 kHzCompression mode : LossyLanguage : English
Audio #8Format : AC-3Format/Info : Audio Coding 3Duration : 10 s 0 msChannel(s) : 6 channelsSampling rate : 48.0 kHzCompression mode : LossyLanguage : English
Text #1Format : RLEFormat/Info : Run-length encodingBit depth : 2 bits
Text #2Format : RLEFormat/Info : Run-length encodingBit depth : 2 bits
Text #3Format : RLEFormat/Info : Run-length encodingBit depth : 2 bits
Text #4Format : RLEFormat/Info : Run-length encodingBit depth : 2 bits
Text #5Format : RLEFormat/Info : Run-length encodingBit depth : 2 bits
Text #6Format : RLEFormat/Info : Run-length encodingBit depth : 2 bits
Text #7Format : RLEFormat/Info : Run-length encodingBit depth : 2 bits
Text #8Format : RLEFormat/Info : Run-length encodingBit depth : 2 bits
Text #9Format : RLEFormat/Info : Run-length encodingBit depth : 2 bits
Text #10Format : RLEFormat/Info : Run-length encodingBit depth : 2 bits
Text #11Format : RLEFormat/Info : Run-length encodingBit depth : 2 bits
Text #12Format : RLEFormat/Info : Run-length encodingBit depth : 2 bits
Text #13Format : RLEFormat/Info : Run-length encodingBit depth : 2 bits
Text #14Format : RLEFormat/Info : Run-length encodingBit depth : 2 bits
Text #15Format : RLEFormat/Info : Run-length encodingBit depth : 2 bits
Text #16Format : RLEFormat/Info : Run-length encodingBit depth : 2 bits
Text #17Format : RLEFormat/Info : Run-length encodingBit depth : 2 bits
Text #18Format : RLEFormat/Info : Run-length encodingBit depth : 2 bits
Text #19Format : RLEFormat/Info : Run-length encodingBit depth : 2 bits
Text #20Format : RLEFormat/Info : Run-length encodingBit depth : 2 bits
Text #21Format : RLEFormat/Info : Run-length encodingBit depth : 2 bits
Text #22Format : RLEFormat/Info : Run-length encodingBit depth : 2 bits
Text #23Format : RLEFormat/Info : Run-length encodingBit depth : 2 bits
Text #24Format : RLEFormat/Info : Run-length encodingBit depth : 2 bits
Text #25Format : RLEFormat/Info : Run-length encodingBit depth : 2 bits
Text #26Format : RLEFormat/Info : Run-length encodingBit depth : 2 bits
Text #27Format : RLEFormat/Info : Run-length encodingBit depth : 2 bits
Text #28Format : RLEFormat/Info : Run-length encodingBit depth : 2 bits
Text #29Format : RLEFormat/Info : Run-length encodingBit depth : 2 bits
Text #30Format : RLEFormat/Info : Run-length encodingBit depth : 2 bits
Text #31Format : RLEFormat/Info : Run-length encodingBit depth : 2 bits
Text #32Format : RLEFormat/Info : Run-length encodingBit depth : 2 bits
MenuDuration : 10 s 0 ms00:00:00.000 : Chapter 1
GeneralComplete name : E:\Хроники центра им. М.В. Хруничева\DVD_VIDEO\VIDEO_TS\VTS_06_1.VOBFormat : MPEG-PSFile size : 97.1 MiBDuration : 2 min 3 sOverall bit rate mode : ConstantOverall bit rate : 6 572 kb/s
VideoID : 224 (0xE0)Format : MPEG VideoFormat version : Version 2Format profile : Main@MainFormat settings : CustomMatrix / BVOPFormat settings, BVOP : YesFormat settings, Matrix : CustomFormat settings, GOP : VariableFormat settings, picture structure : FrameDuration : 2 min 3 sBit rate mode : ConstantBit rate : 6 000 kb/sWidth : 720 pixelsHeight : 576 pixelsDisplay aspect ratio : 4:3Frame rate : 25.000 FPSStandard : PALColor space : YUVChroma subsampling : 4:2:0Bit depth : 8 bitsScan type : InterlacedScan order : Top Field FirstCompression mode : LossyBits/(Pixel*Frame) : 0.579Time code of first frame : 00:03:06:13Time code source : Group of pictures headerGOP, Open/Closed : ClosedStream size : 88.5 MiB (91%)
AudioID : 189 (0xBD)-128 (0x80)Format : AC-3Format/Info : Audio Coding 3Muxing mode : DVD-VideoDuration : 2 min 3 sBit rate mode : ConstantBit rate : 448 kb/sChannel(s) : 6 channelsChannel positions : Front: L C R, Side: L R, LFESampling rate : 48.0 kHzFrame rate : 31.250 FPS (1536 SPF)Bit depth : 16 bitsCompression mode : LossyStream size : 6.61 MiB (7%)Service kind : Complete Main
Menu
GeneralComplete name : E:\Хроники центра им. М.В. Хруничева\DVD_VIDEO\VIDEO_TS\VTS_08_0.BUPFormat : DVD VideoFormat profile : ProgramFile size : 18.0 KiBDuration : 1 min 30 sOverall bit rate mode : VariableOverall bit rate : 1 621 b/sFileExtension_Invalid : ifo
VideoID : 224 (0xE0)Format : MPEG VideoFormat version : Version 2Duration : 1 min 30 sBit rate mode : VariableWidth : 720 pixelsHeight : 576 pixelsDisplay aspect ratio : 4:3Frame rate : 25.000 FPSStandard : PALCompression mode : Lossy
AudioID : 128 (0x80)Format : AC-3Format/Info : Audio Coding 3Duration : 1 min 30 sChannel(s) : 2 channelsSampling rate : 48.0 kHzCompression mode : LossyLanguage : Russian
MenuDuration : 1 min 30 s00:00:00.000 : Chapter 1List (Audio) : 0
GeneralComplete name : E:\Хроники центра им. М.В. Хруничева\DVD_VIDEO\VIDEO_TS\VTS_06_0.VOBFormat : MPEG-PSFile size : 154 KiBDuration : 600 msOverall bit rate : 2 103 kb/s
VideoID : 224 (0xE0)Format : MPEG VideoFormat version : Version 2Format profile : Main@MainFormat settings : CustomMatrix / BVOPFormat settings, BVOP : YesFormat settings, Matrix : CustomFormat settings, picture structure : FrameDuration : 600 msBit rate mode : ConstantMaximum bit rate : 2 000 kb/sWidth : 720 pixelsHeight : 576 pixelsDisplay aspect ratio : 4:3Frame rate : 25.000 FPSStandard : PALColor space : YUVChroma subsampling : 4:2:0Bit depth : 8 bitsScan type : InterlacedScan order : Top Field FirstCompression mode : LossyTime code of first frame : 00:00:00:00Time code source : Group of pictures header
TextID : 189 (0xBD)-32 (0x20)Format : RLEFormat/Info : Run-length encodingMuxing mode : DVD-Video
Menu
GeneralComplete name : E:\Хроники центра им. М.В. Хруничева\DVD_VIDEO\VIDEO_TS\VTS_08_1.VOBFormat : MPEG-PSFile size : 68.9 MiBDuration : 1 min 30 sOverall bit rate mode : ConstantOverall bit rate : 6 350 kb/s
VideoID : 224 (0xE0)Format : MPEG VideoFormat version : Version 2Format profile : Main@MainFormat settings : CustomMatrix / BVOPFormat settings, BVOP : YesFormat settings, Matrix : CustomFormat settings, GOP : M=2, N=4Format settings, picture structure : FrameDuration : 1 min 30 sBit rate mode : ConstantBit rate : 6 000 kb/sWidth : 720 pixelsHeight : 576 pixelsDisplay aspect ratio : 4:3Frame rate : 25.000 FPSStandard : PALColor space : YUVChroma subsampling : 4:2:0Bit depth : 8 bitsScan type : InterlacedScan order : Top Field FirstCompression mode : LossyBits/(Pixel*Frame) : 0.579Time code of first frame : 01:28:05:00Time code source : Group of pictures headerGOP, Open/Closed : ClosedStream size : 65.4 MiB (95%)
AudioID : 189 (0xBD)-128 (0x80)Format : AC-3Format/Info : Audio Coding 3Muxing mode : DVD-VideoDuration : 1 min 30 sBit rate mode : ConstantBit rate : 192 kb/sChannel(s) : 2 channelsChannel positions : Front: L RSampling rate : 48.0 kHzFrame rate : 31.250 FPS (1536 SPF)Bit depth : 16 bitsCompression mode : LossyStream size : 2.08 MiB (3%)Service kind : Complete Main
Menu
GeneralComplete name : E:\Хроники центра им. М.В. Хруничева\DVD_VIDEO\VIDEO_TS\VTS_02_0.VOBFormat : MPEG-PSFile size : 154 KiBDuration : 600 msOverall bit rate : 2 103 kb/s
VideoID : 224 (0xE0)Format : MPEG VideoFormat version : Version 2Format profile : Main@MainFormat settings : CustomMatrix / BVOPFormat settings, BVOP : YesFormat settings, Matrix : CustomFormat settings, picture structure : FrameDuration : 600 msBit rate mode : ConstantMaximum bit rate : 2 000 kb/sWidth : 720 pixelsHeight : 576 pixelsDisplay aspect ratio : 4:3Frame rate : 25.000 FPSStandard : PALColor space : YUVChroma subsampling : 4:2:0Bit depth : 8 bitsScan type : InterlacedScan order : Top Field FirstCompression mode : LossyTime code of first frame : 00:00:00:00Time code source : Group of pictures header
TextID : 189 (0xBD)-32 (0x20)Format : RLEFormat/Info : Run-length encodingMuxing mode : DVD-Video
Menu
GeneralComplete name : E:\Хроники центра им. М.В. Хруничева\DVD_VIDEO\VIDEO_TS\VTS_05_1.VOBFormat : MPEG-PSFile size : 215 MiBDuration : 4 min 42 sOverall bit rate mode : ConstantOverall bit rate : 6 371 kb/s
VideoID : 224 (0xE0)Format : MPEG VideoFormat version : Version 2Format profile : Main@MainFormat settings : CustomMatrix / BVOPFormat settings, BVOP : YesFormat settings, Matrix : CustomFormat settings, GOP : M=3, N=15Format settings, picture structure : FrameDuration : 4 min 42 sBit rate mode : ConstantBit rate : 6 000 kb/sWidth : 720 pixelsHeight : 576 pixelsDisplay aspect ratio : 16:9Frame rate : 25.000 FPSStandard : PALColor space : YUVChroma subsampling : 4:2:0Bit depth : 8 bitsScan type : InterlacedScan order : Top Field FirstCompression mode : LossyBits/(Pixel*Frame) : 0.579Time code of first frame : 01:00:00:00Time code source : Group of pictures headerGOP, Open/Closed : OpenGOP, Open/Closed of first frame : ClosedStream size : 202 MiB (94%)
AudioID : 189 (0xBD)-128 (0x80)Format : AC-3Format/Info : Audio Coding 3Muxing mode : DVD-VideoDuration : 4 min 42 sBit rate mode : ConstantBit rate : 256 kb/sChannel(s) : 2 channelsChannel positions : Front: L RSampling rate : 48.0 kHzFrame rate : 31.250 FPS (1536 SPF)Bit depth : 16 bitsCompression mode : LossyStream size : 8.62 MiB (4%)Service kind : Complete Main
Menu
GeneralComplete name : E:\Хроники центра им. М.В. Хруничева\DVD_VIDEO\VIDEO_TS\VTS_01_0.BUPFormat : DVD VideoFormat profile : ProgramFile size : 20.0 KiBDuration : 10 s 0 msOverall bit rate mode : VariableOverall bit rate : 16.4 kb/sFileExtension_Invalid : ifo
VideoID : 224 (0xE0)Format : MPEG VideoFormat version : Version 2Duration : 10 s 0 msBit rate mode : VariableWidth : 720 pixelsHeight : 576 pixelsDisplay aspect ratio : 16:9Frame rate : 25.000 FPSStandard : PALCompression mode : Lossy
Audio #1Format : AC-3Format/Info : Audio Coding 3Duration : 10 s 0 msChannel(s) : 6 channelsSampling rate : 48.0 kHzCompression mode : LossyLanguage : English
Audio #2Format : AC-3Format/Info : Audio Coding 3Duration : 10 s 0 msChannel(s) : 6 channelsSampling rate : 48.0 kHzCompression mode : LossyLanguage : English
Audio #3Format : AC-3Format/Info : Audio Coding 3Duration : 10 s 0 msChannel(s) : 6 channelsSampling rate : 48.0 kHzCompression mode : LossyLanguage : English
Audio #4Format : AC-3Format/Info : Audio Coding 3Duration : 10 s 0 msChannel(s) : 6 channelsSampling rate : 48.0 kHzCompression mode : LossyLanguage : English
Audio #5Format : AC-3Format/Info : Audio Coding 3Duration : 10 s 0 msChannel(s) : 6 channelsSampling rate : 48.0 kHzCompression mode : LossyLanguage : English
Audio #6Format : AC-3Format/Info : Audio Coding 3Duration : 10 s 0 msChannel(s) : 6 channelsSampling rate : 48.0 kHzCompression mode : LossyLanguage : English
Audio #7Format : AC-3Format/Info : Audio Coding 3Duration : 10 s 0 msChannel(s) : 6 channelsSampling rate : 48.0 kHzCompression mode : LossyLanguage : English
Audio #8Format : AC-3Format/Info : Audio Coding 3Duration : 10 s 0 msChannel(s) : 6 channelsSampling rate : 48.0 kHzCompression mode : LossyLanguage : English
Text #1Format : RLEFormat/Info : Run-length encodingBit depth : 2 bits
Text #2Format : RLEFormat/Info : Run-length encodingBit depth : 2 bits
Text #3Format : RLEFormat/Info : Run-length encodingBit depth : 2 bits
Text #4Format : RLEFormat/Info : Run-length encodingBit depth : 2 bits
Text #5Format : RLEFormat/Info : Run-length encodingBit depth : 2 bits
Text #6Format : RLEFormat/Info : Run-length encodingBit depth : 2 bits
Text #7Format : RLEFormat/Info : Run-length encodingBit depth : 2 bits
Text #8Format : RLEFormat/Info : Run-length encodingBit depth : 2 bits
Text #9Format : RLEFormat/Info : Run-length encodingBit depth : 2 bits
Text #10Format : RLEFormat/Info : Run-length encodingBit depth : 2 bits
Text #11Format : RLEFormat/Info : Run-length encodingBit depth : 2 bits
Text #12Format : RLEFormat/Info : Run-length encodingBit depth : 2 bits
Text #13Format : RLEFormat/Info : Run-length encodingBit depth : 2 bits
Text #14Format : RLEFormat/Info : Run-length encodingBit depth : 2 bits
Text #15Format : RLEFormat/Info : Run-length encodingBit depth : 2 bits
Text #16Format : RLEFormat/Info : Run-length encodingBit depth : 2 bits
Text #17Format : RLEFormat/Info : Run-length encodingBit depth : 2 bits
Text #18Format : RLEFormat/Info : Run-length encodingBit depth : 2 bits
Text #19Format : RLEFormat/Info : Run-length encodingBit depth : 2 bits
Text #20Format : RLEFormat/Info : Run-length encodingBit depth : 2 bits
Text #21Format : RLEFormat/Info : Run-length encodingBit depth : 2 bits
Text #22Format : RLEFormat/Info : Run-length encodingBit depth : 2 bits
Text #23Format : RLEFormat/Info : Run-length encodingBit depth : 2 bits
Text #24Format : RLEFormat/Info : Run-length encodingBit depth : 2 bits
Text #25Format : RLEFormat/Info : Run-length encodingBit depth : 2 bits
Text #26Format : RLEFormat/Info : Run-length encodingBit depth : 2 bits
Text #27Format : RLEFormat/Info : Run-length encodingBit depth : 2 bits
Text #28Format : RLEFormat/Info : Run-length encodingBit depth : 2 bits
Text #29Format : RLEFormat/Info : Run-length encodingBit depth : 2 bits
Text #30Format : RLEFormat/Info : Run-length encodingBit depth : 2 bits
Text #31Format : RLEFormat/Info : Run-length encodingBit depth : 2 bits
Text #32Format : RLEFormat/Info : Run-length encodingBit depth : 2 bits
MenuDuration : 10 s 0 ms00:00:00.000 : Chapter 1
GeneralComplete name : E:\Хроники центра им. М.В. Хруничева\DVD_VIDEO\VIDEO_TS\VTS_03_0.BUPFormat : DVD VideoFormat profile : ProgramFile size : 34.0 KiBDuration : 26 min 24 sOverall bit rate mode : VariableOverall bit rate : 176 b/sFileExtension_Invalid : ifo
VideoID : 224 (0xE0)Format : MPEG VideoFormat version : Version 2Duration : 26 min 24 sBit rate mode : VariableWidth : 720 pixelsHeight : 576 pixelsDisplay aspect ratio : 16:9Frame rate : 25.000 FPSStandard : PALCompression mode : Lossy
AudioID : 128 (0x80)Format : AC-3Format/Info : Audio Coding 3Duration : 26 min 24 sChannel(s) : 2 channelsSampling rate : 48.0 kHzCompression mode : LossyLanguage : Russian
MenuDuration : 26 min 24 s00:00:00.000 : Chapter 100:04:21.320 : Chapter 200:09:06.360 : Chapter 300:14:39.120 : Chapter 400:24:54.400 : Chapter 500:26:23.720 : Chapter 6List (Audio) : 0
GeneralComplete name : E:\Хроники центра им. М.В. Хруничева\DVD_VIDEO\VIDEO_TS\VTS_02_0.BUPFormat : DVD VideoFormat profile : ProgramFile size : 18.0 KiBDuration : 21 s 520 msOverall bit rate mode : VariableOverall bit rate : 6 852 b/sFileExtension_Invalid : ifo
VideoID : 224 (0xE0)Format : MPEG VideoFormat version : Version 2Duration : 21 s 520 msBit rate mode : VariableWidth : 720 pixelsHeight : 576 pixelsDisplay aspect ratio : 16:9Frame rate : 25.000 FPSStandard : PALCompression mode : Lossy
AudioID : 128 (0x80)Format : AC-3Format/Info : Audio Coding 3Duration : 21 s 520 msChannel(s) : 6 channelsSampling rate : 48.0 kHzCompression mode : LossyLanguage : Russian
MenuDuration : 21 s 520 ms00:00:00.000 : Chapter 1List (Audio) : 0
GeneralComplete name : E:\Хроники центра им. М.В. Хруничева\DVD_VIDEO\VIDEO_TS\VTS_02_0.IFOFormat : DVD VideoFormat profile : ProgramFile size : 18.0 KiBDuration : 21 s 520 msOverall bit rate mode : VariableOverall bit rate : 6 852 b/s
VideoID : 224 (0xE0)Format : MPEG VideoFormat version : Version 2Duration : 21 s 520 msBit rate mode : VariableWidth : 720 pixelsHeight : 576 pixelsDisplay aspect ratio : 16:9Frame rate : 25.000 FPSStandard : PALCompression mode : Lossy
AudioID : 128 (0x80)Format : AC-3Format/Info : Audio Coding 3Duration : 21 s 520 msChannel(s) : 6 channelsSampling rate : 48.0 kHzCompression mode : LossyLanguage : Russian
MenuDuration : 21 s 520 ms00:00:00.000 : Chapter 1List (Audio) : 0
GeneralComplete name : E:\Хроники центра им. М.В. Хруничева\DVD_VIDEO\VIDEO_TS\VTS_07_0.IFOFormat : DVD VideoFormat profile : ProgramFile size : 18.0 KiBDuration : 1 min 41 sOverall bit rate mode : VariableOverall bit rate : 1 449 b/s
VideoID : 224 (0xE0)Format : MPEG VideoFormat version : Version 2Duration : 1 min 41 sBit rate mode : VariableWidth : 720 pixelsHeight : 576 pixelsDisplay aspect ratio : 4:3Frame rate : 25.000 FPSStandard : PALCompression mode : Lossy
AudioID : 128 (0x80)Format : AC-3Format/Info : Audio Coding 3Duration : 1 min 41 sChannel(s) : 2 channelsSampling rate : 48.0 kHzCompression mode : LossyLanguage : Russian
MenuDuration : 1 min 41 s00:00:00.000 : Chapter 1List (Audio) : 0
GeneralComplete name : E:\Хроники центра им. М.В. Хруничева\DVD_VIDEO\VIDEO_TS\VTS_02_1.VOBFormat : MPEG-PSFile size : 14.3 MiBDuration : 21 s 520 msOverall bit rate mode : ConstantOverall bit rate : 5 558 kb/s
VideoID : 224 (0xE0)Format : MPEG VideoFormat version : Version 2Format profile : Main@MainFormat settings : CustomMatrix / BVOPFormat settings, BVOP : YesFormat settings, Matrix : CustomFormat settings, GOP : VariableFormat settings, picture structure : FrameDuration : 21 s 520 msBit rate mode : ConstantBit rate : 5 000 kb/sWidth : 720 pixelsHeight : 576 pixelsDisplay aspect ratio : 4:3Frame rate : 25.000 FPSStandard : PALColor space : YUVChroma subsampling : 4:2:0Bit depth : 8 bitsScan type : InterlacedScan order : Top Field FirstCompression mode : LossyBits/(Pixel*Frame) : 0.482Time code of first frame : 01:04:06:12Time code source : Group of pictures headerGOP, Open/Closed : OpenGOP, Open/Closed of first frame : ClosedStream size : 12.8 MiB (90%)
AudioID : 189 (0xBD)-128 (0x80)Format : AC-3Format/Info : Audio Coding 3Muxing mode : DVD-VideoDuration : 21 s 504 msBit rate mode : ConstantBit rate : 448 kb/sChannel(s) : 6 channelsChannel positions : Front: L C R, Side: L R, LFESampling rate : 48.0 kHzFrame rate : 31.250 FPS (1536 SPF)Bit depth : 16 bitsCompression mode : LossyStream size : 1.15 MiB (8%)Service kind : Complete Main
Menu
GeneralComplete name : E:\Хроники центра им. М.В. Хруничева\DVD_VIDEO\VIDEO_TS\VTS_07_0.VOBFormat : MPEG-PSFile size : 154 KiBDuration : 600 msOverall bit rate : 2 103 kb/s
VideoID : 224 (0xE0)Format : MPEG VideoFormat version : Version 2Format profile : Main@MainFormat settings : CustomMatrix / BVOPFormat settings, BVOP : YesFormat settings, Matrix : CustomFormat settings, picture structure : FrameDuration : 600 msBit rate mode : ConstantMaximum bit rate : 2 000 kb/sWidth : 720 pixelsHeight : 576 pixelsDisplay aspect ratio : 4:3Frame rate : 25.000 FPSStandard : PALColor space : YUVChroma subsampling : 4:2:0Bit depth : 8 bitsScan type : InterlacedScan order : Top Field FirstCompression mode : LossyTime code of first frame : 00:00:00:00Time code source : Group of pictures header
TextID : 189 (0xBD)-32 (0x20)Format : RLEFormat/Info : Run-length encodingMuxing mode : DVD-Video
Menu
GeneralComplete name : E:\Хроники центра им. М.В. Хруничева\DVD_VIDEO\VIDEO_TS\VTS_07_0.BUPFormat : DVD VideoFormat profile : ProgramFile size : 18.0 KiBDuration : 1 min 41 sOverall bit rate mode : VariableOverall bit rate : 1 449 b/sFileExtension_Invalid : ifo
VideoID : 224 (0xE0)Format : MPEG VideoFormat version : Version 2Duration : 1 min 41 sBit rate mode : VariableWidth : 720 pixelsHeight : 576 pixelsDisplay aspect ratio : 4:3Frame rate : 25.000 FPSStandard : PALCompression mode : Lossy
AudioID : 128 (0x80)Format : AC-3Format/Info : Audio Coding 3Duration : 1 min 41 sChannel(s) : 2 channelsSampling rate : 48.0 kHzCompression mode : LossyLanguage : Russian
MenuDuration : 1 min 41 s00:00:00.000 : Chapter 1List (Audio) : 0
GeneralComplete name : E:\Хроники центра им. М.В. Хруничева\DVD_VIDEO\VIDEO_TS\VTS_01_1.VOBFormat : MPEG-PSFile size : 6.07 MiBDuration : 10 s 0 msOverall bit rate mode : ConstantOverall bit rate : 5 092 kb/s
VideoID : 224 (0xE0)Format : MPEG VideoFormat version : Version 2Format profile : Main@MainFormat settings : BVOPFormat settings, BVOP : YesFormat settings, Matrix : DefaultFormat settings, GOP : M=3, N=12Duration : 10 s 0 msBit rate mode : ConstantBit rate : 5 000 kb/sWidth : 720 pixelsHeight : 576 pixelsDisplay aspect ratio : 4:3Frame rate : 25.000 FPSStandard : PALColor space : YUVChroma subsampling : 4:2:0Bit depth : 8 bitsScan type : ProgressiveCompression mode : LossyBits/(Pixel*Frame) : 0.482Time code of first frame : 00:00:00:00Time code source : Group of pictures headerGOP, Open/Closed : ClosedStream size : 5.95 MiB (98%)Color primaries : BT.601 PALTransfer characteristics : BT.470 System B/GMatrix coefficients : BT.470 System B/G
Menu
GeneralComplete name : E:\Хроники центра им. М.В. Хруничева\DVD_VIDEO\VIDEO_TS\VTS_04_2.VOBFormat : MPEG-PSFile size : 350 MiBDuration : 7 min 40 sOverall bit rate mode : ConstantOverall bit rate : 6 368 kb/s
VideoID : 224 (0xE0)Format : MPEG VideoFormat version : Version 2Format profile : Main@MainFormat settings : CustomMatrix / BVOPFormat settings, BVOP : YesFormat settings, Matrix : CustomFormat settings, GOP : M=3, N=15Format settings, picture structure : FrameDuration : 7 min 40 sBit rate mode : ConstantBit rate : 6 000 kb/sWidth : 720 pixelsHeight : 576 pixelsDisplay aspect ratio : 16:9Frame rate : 25.000 FPSStandard : PALColor space : YUVChroma subsampling : 4:2:0Bit depth : 8 bitsScan type : InterlacedScan order : Top Field FirstCompression mode : LossyBits/(Pixel*Frame) : 0.579Time code of first frame : 00:23:28:06Time code source : Group of pictures headerGOP, Open/Closed : OpenStream size : 329 MiB (94%)
AudioID : 189 (0xBD)-128 (0x80)Format : AC-3Format/Info : Audio Coding 3Muxing mode : DVD-VideoDuration : 7 min 40 sBit rate mode : ConstantBit rate : 256 kb/sChannel(s) : 2 channelsChannel positions : Front: L RSampling rate : 48.0 kHzFrame rate : 31.250 FPS (1536 SPF)Bit depth : 16 bitsCompression mode : LossyDelay relative to video : -416 msStream size : 14.1 MiB (4%)Service kind : Complete Main
Menu
GeneralComplete name : E:\Хроники центра им. М.В. Хруничева\DVD_VIDEO\VIDEO_TS\VTS_03_0.VOBFormat : MPEG-PSFile size : 154 KiBDuration : 600 msOverall bit rate : 2 103 kb/s
VideoID : 224 (0xE0)Format : MPEG VideoFormat version : Version 2Format profile : Main@MainFormat settings : CustomMatrix / BVOPFormat settings, BVOP : YesFormat settings, Matrix : CustomFormat settings, picture structure : FrameDuration : 600 msBit rate mode : ConstantMaximum bit rate : 2 000 kb/sWidth : 720 pixelsHeight : 576 pixelsDisplay aspect ratio : 4:3Frame rate : 25.000 FPSStandard : PALColor space : YUVChroma subsampling : 4:2:0Bit depth : 8 bitsScan type : InterlacedScan order : Top Field FirstCompression mode : LossyTime code of first frame : 00:00:00:00Time code source : Group of pictures header
TextID : 189 (0xBD)-32 (0x20)Format : RLEFormat/Info : Run-length encodingMuxing mode : DVD-Video
Menu
GeneralComplete name : E:\Хроники центра им. М.В. Хруничева\DVD_VIDEO\VIDEO_TS\VTS_05_0.VOBFormat : MPEG-PSFile size : 154 KiBDuration : 600 msOverall bit rate : 2 103 kb/s
VideoID : 224 (0xE0)Format : MPEG VideoFormat version : Version 2Format profile : Main@MainFormat settings : CustomMatrix / BVOPFormat settings, BVOP : YesFormat settings, Matrix : CustomFormat settings, picture structure : FrameDuration : 600 msBit rate mode : ConstantMaximum bit rate : 2 000 kb/sWidth : 720 pixelsHeight : 576 pixelsDisplay aspect ratio : 4:3Frame rate : 25.000 FPSStandard : PALColor space : YUVChroma subsampling : 4:2:0Bit depth : 8 bitsScan type : InterlacedScan order : Top Field FirstCompression mode : LossyTime code of first frame : 00:00:00:00Time code source : Group of pictures header
TextID : 189 (0xBD)-32 (0x20)Format : RLEFormat/Info : Run-length encodingMuxing mode : DVD-Video
Menu
GeneralComplete name : E:\Хроники центра им. М.В. Хруничева\DVD_VIDEO\VIDEO_TS\VIDEO_TS.BUPFormat : DVD VideoFormat profile : MenuFile size : 16.0 KiBOverall bit rate mode : VariableFileExtension_Invalid : ifo
VideoID : 224 (0xE0)Format : MPEG VideoFormat version : Version 2Bit rate mode : VariableWidth : 720 pixelsHeight : 576 pixelsDisplay aspect ratio : 16:9Frame rate : 25.000 FPSStandard : PALCompression mode : Lossy
TextFormat : RLEFormat/Info : Run-length encodingBit depth : 2 bits
GeneralComplete name : E:\Хроники центра им. М.В. Хруничева\DVD_VIDEO\VIDEO_TS\VTS_04_0.VOBFormat : MPEG-PSFile size : 154 KiBDuration : 600 msOverall bit rate : 2 103 kb/s
VideoID : 224 (0xE0)Format : MPEG VideoFormat version : Version 2Format profile : Main@MainFormat settings : CustomMatrix / BVOPFormat settings, BVOP : YesFormat settings, Matrix : CustomFormat settings, picture structure : FrameDuration : 600 msBit rate mode : ConstantMaximum bit rate : 2 000 kb/sWidth : 720 pixelsHeight : 576 pixelsDisplay aspect ratio : 4:3Frame rate : 25.000 FPSStandard : PALColor space : YUVChroma subsampling : 4:2:0Bit depth : 8 bitsScan type : InterlacedScan order : Top Field FirstCompression mode : LossyTime code of first frame : 00:00:00:00Time code source : Group of pictures header
TextID : 189 (0xBD)-32 (0x20)Format : RLEFormat/Info : Run-length encodingMuxing mode : DVD-Video
Menu
GeneralComplete name : E:\Хроники центра им. М.В. Хруничева\DVD_VIDEO\VIDEO_TS\VTS_03_0.IFOFormat : DVD VideoFormat profile : ProgramFile size : 34.0 KiBDuration : 26 min 24 sOverall bit rate mode : VariableOverall bit rate : 176 b/s
VideoID : 224 (0xE0)Format : MPEG VideoFormat version : Version 2Duration : 26 min 24 sBit rate mode : VariableWidth : 720 pixelsHeight : 576 pixelsDisplay aspect ratio : 16:9Frame rate : 25.000 FPSStandard : PALCompression mode : Lossy
AudioID : 128 (0x80)Format : AC-3Format/Info : Audio Coding 3Duration : 26 min 24 sChannel(s) : 2 channelsSampling rate : 48.0 kHzCompression mode : LossyLanguage : Russian
MenuDuration : 26 min 24 s00:00:00.000 : Chapter 100:04:21.320 : Chapter 200:09:06.360 : Chapter 300:14:39.120 : Chapter 400:24:54.400 : Chapter 500:26:23.720 : Chapter 6List (Audio) : 0
GeneralComplete name : E:\Хроники центра им. М.В. Хруничева\DVD_VIDEO\VIDEO_TS\VTS_03_1.VOBFormat : MPEG-PSFile size : 1 024 MiBDuration : 22 min 28 sOverall bit rate mode : ConstantOverall bit rate : 6 371 kb/s
VideoID : 224 (0xE0)Format : MPEG VideoFormat version : Version 2Format profile : Main@MainFormat settings : CustomMatrix / BVOPFormat settings, BVOP : YesFormat settings, Matrix : CustomFormat settings, GOP : M=3, N=15Format settings, picture structure : FrameDuration : 22 min 28 sBit rate mode : ConstantBit rate : 6 000 kb/sWidth : 720 pixelsHeight : 576 pixelsDisplay aspect ratio : 16:9Frame rate : 25.000 FPSStandard : PALColor space : YUVChroma subsampling : 4:2:0Bit depth : 8 bitsScan type : InterlacedScan order : Top Field FirstCompression mode : LossyBits/(Pixel*Frame) : 0.579Time code of first frame : 00:00:00:00Time code source : Group of pictures headerGOP, Open/Closed : OpenGOP, Open/Closed of first frame : ClosedStream size : 962 MiB (94%)
AudioID : 189 (0xBD)-128 (0x80)Format : AC-3Format/Info : Audio Coding 3Muxing mode : DVD-VideoDuration : 22 min 27 sBit rate mode : ConstantBit rate : 256 kb/sChannel(s) : 2 channelsChannel positions : Front: L RSampling rate : 48.0 kHzFrame rate : 31.250 FPS (1536 SPF)Bit depth : 16 bitsCompression mode : LossyStream size : 41.1 MiB (4%)Service kind : Complete Main
Menu
GeneralComplete name : E:\Хроники центра им. М.В. Хруничева\DVD_VIDEO\VIDEO_TS\VTS_04_1.VOBFormat : MPEG-PSFile size : 1 024 MiBDuration : 22 min 28 sOverall bit rate mode : ConstantOverall bit rate : 6 371 kb/s
VideoID : 224 (0xE0)Format : MPEG VideoFormat version : Version 2Format profile : Main@MainFormat settings : CustomMatrix / BVOPFormat settings, BVOP : YesFormat settings, Matrix : CustomFormat settings, GOP : M=3, N=15Format settings, picture structure : FrameDuration : 22 min 28 sBit rate mode : ConstantBit rate : 6 000 kb/sWidth : 720 pixelsHeight : 576 pixelsDisplay aspect ratio : 16:9Frame rate : 25.000 FPSStandard : PALColor space : YUVChroma subsampling : 4:2:0Bit depth : 8 bitsScan type : InterlacedScan order : Top Field FirstCompression mode : LossyBits/(Pixel*Frame) : 0.579Time code of first frame : 00:00:00:00Time code source : Group of pictures headerGOP, Open/Closed : OpenGOP, Open/Closed of first frame : ClosedStream size : 962 MiB (94%)
AudioID : 189 (0xBD)-128 (0x80)Format : AC-3Format/Info : Audio Coding 3Muxing mode : DVD-VideoDuration : 22 min 27 sBit rate mode : ConstantBit rate : 256 kb/sChannel(s) : 2 channelsChannel positions : Front: L RSampling rate : 48.0 kHzFrame rate : 31.250 FPS (1536 SPF)Bit depth : 16 bitsCompression mode : LossyStream size : 41.1 MiB (4%)Service kind : Complete Main
Menu
GeneralComplete name : E:\Хроники центра им. М.В. Хруничева\DVD_VIDEO\VIDEO_TS\VTS_04_0.BUPFormat : DVD VideoFormat profile : ProgramFile size : 34.0 KiBDuration : 30 min 8 sOverall bit rate mode : VariableOverall bit rate : 154 b/sFileExtension_Invalid : ifo
VideoID : 224 (0xE0)Format : MPEG VideoFormat version : Version 2Duration : 30 min 8 sBit rate mode : VariableWidth : 720 pixelsHeight : 576 pixelsDisplay aspect ratio : 16:9Frame rate : 25.000 FPSStandard : PALCompression mode : Lossy
AudioID : 128 (0x80)Format : AC-3Format/Info : Audio Coding 3Duration : 30 min 8 sChannel(s) : 2 channelsSampling rate : 48.0 kHzCompression mode : LossyLanguage : Russian
MenuDuration : 30 min 8 s00:00:00.000 : Chapter 100:02:51.080 : Chapter 200:14:04.400 : Chapter 300:21:43.840 : Chapter 400:28:10.320 : Chapter 500:30:08.360 : Chapter 6List (Audio) : 0
GeneralComplete name : E:\Хроники центра им. М.В. Хруничева\DVD_VIDEO\VIDEO_TS\VTS_06_0.IFOFormat : DVD VideoFormat profile : ProgramFile size : 18.0 KiBDuration : 2 min 3 sOverall bit rate mode : VariableOverall bit rate : 1 190 b/s
VideoID : 224 (0xE0)Format : MPEG VideoFormat version : Version 2Duration : 2 min 3 sBit rate mode : VariableWidth : 720 pixelsHeight : 576 pixelsDisplay aspect ratio : 4:3Frame rate : 25.000 FPSStandard : PALCompression mode : Lossy
AudioID : 128 (0x80)Format : AC-3Format/Info : Audio Coding 3Duration : 2 min 3 sChannel(s) : 6 channelsSampling rate : 48.0 kHzCompression mode : LossyLanguage : Russian
MenuDuration : 2 min 3 s00:00:00.000 : Chapter 1List (Audio) : 0
GeneralComplete name : E:\Хроники центра им. М.В. Хруничева\DVD_VIDEO\VIDEO_TS\VTS_08_0.IFOFormat : DVD VideoFormat profile : ProgramFile size : 18.0 KiBDuration : 1 min 30 sOverall bit rate mode : VariableOverall bit rate : 1 621 b/s
VideoID : 224 (0xE0)Format : MPEG VideoFormat version : Version 2Duration : 1 min 30 sBit rate mode : VariableWidth : 720 pixelsHeight : 576 pixelsDisplay aspect ratio : 4:3Frame rate : 25.000 FPSStandard : PALCompression mode : Lossy
AudioID : 128 (0x80)Format : AC-3Format/Info : Audio Coding 3Duration : 1 min 30 sChannel(s) : 2 channelsSampling rate : 48.0 kHzCompression mode : LossyLanguage : Russian
MenuDuration : 1 min 30 s00:00:00.000 : Chapter 1List (Audio) : 0
GeneralComplete name : E:\Хроники центра им. М.В. Хруничева\DVD_VIDEO\VIDEO_TS\VIDEO_TS.IFOFormat : DVD VideoFormat profile : MenuFile size : 16.0 KiBOverall bit rate mode : Variable
VideoID : 224 (0xE0)Format : MPEG VideoFormat version : Version 2Bit rate mode : VariableWidth : 720 pixelsHeight : 576 pixelsDisplay aspect ratio : 16:9Frame rate : 25.000 FPSStandard : PALCompression mode : Lossy
TextFormat : RLEFormat/Info : Run-length encodingBit depth : 2 bits
GeneralComplete name : E:\Хроники центра им. М.В. Хруничева\DVD_VIDEO\VIDEO_TS\VTS_03_2.VOBFormat : MPEG-PSFile size : 179 MiBDuration : 3 min 56 sOverall bit rate mode : ConstantOverall bit rate : 6 364 kb/s
VideoID : 224 (0xE0)Format : MPEG VideoFormat version : Version 2Format profile : Main@MainFormat settings : CustomMatrix / BVOPFormat settings, BVOP : YesFormat settings, Matrix : CustomFormat settings, GOP : M=3, N=15Format settings, picture structure : FrameDuration : 3 min 55 sBit rate mode : ConstantBit rate : 6 000 kb/sWidth : 720 pixelsHeight : 576 pixelsDisplay aspect ratio : 16:9Frame rate : 25.000 FPSStandard : PALColor space : YUVChroma subsampling : 4:2:0Bit depth : 8 bitsScan type : InterlacedScan order : Top Field FirstCompression mode : LossyBits/(Pixel*Frame) : 0.579Time code of first frame : 00:23:28:08Time code source : Group of pictures headerGOP, Open/Closed : OpenStream size : 168 MiB (94%)
AudioID : 189 (0xBD)-128 (0x80)Format : AC-3Format/Info : Audio Coding 3Muxing mode : DVD-VideoDuration : 3 min 56 sBit rate mode : ConstantBit rate : 256 kb/sChannel(s) : 2 channelsChannel positions : Front: L RSampling rate : 48.0 kHzFrame rate : 31.250 FPS (1536 SPF)Bit depth : 16 bitsCompression mode : LossyDelay relative to video : -496 msStream size : 7.21 MiB (4%)Service kind : Complete Main
Menu
GeneralComplete name : E:\Хроники центра им. М.В. Хруничева\DVD_VIDEO\VIDEO_TS\VTS_05_0.BUPFormat : DVD VideoFormat profile : ProgramFile size : 18.0 KiBDuration : 4 min 42 sOverall bit rate mode : VariableOverall bit rate : 522 b/sFileExtension_Invalid : ifo
VideoID : 224 (0xE0)Format : MPEG VideoFormat version : Version 2Duration : 4 min 42 sBit rate mode : VariableWidth : 720 pixelsHeight : 576 pixelsDisplay aspect ratio : 16:9Frame rate : 25.000 FPSStandard : PALCompression mode : Lossy
AudioID : 128 (0x80)Format : AC-3Format/Info : Audio Coding 3Duration : 4 min 42 sChannel(s) : 2 channelsSampling rate : 48.0 kHzCompression mode : LossyLanguage : Russian
MenuDuration : 4 min 42 s00:00:00.000 : Chapter 1List (Audio) : 0
GeneralComplete name : E:\Хроники центра им. М.В. Хруничева\DVD_VIDEO\VIDEO_TS\VTS_05_0.IFOFormat : DVD VideoFormat profile : ProgramFile size : 18.0 KiBDuration : 4 min 42 sOverall bit rate mode : VariableOverall bit rate : 522 b/s
VideoID : 224 (0xE0)Format : MPEG VideoFormat version : Version 2Duration : 4 min 42 sBit rate mode : VariableWidth : 720 pixelsHeight : 576 pixelsDisplay aspect ratio : 16:9Frame rate : 25.000 FPSStandard : PALCompression mode : Lossy
AudioID : 128 (0x80)Format : AC-3Format/Info : Audio Coding 3Duration : 4 min 42 sChannel(s) : 2 channelsSampling rate : 48.0 kHzCompression mode : LossyLanguage : Russian
MenuDuration : 4 min 42 s00:00:00.000 : Chapter 1List (Audio) : 0
GeneralComplete name : E:\Хроники центра им. М.В. Хруничева\DVD_VIDEO\VIDEO_TS\VTS_07_1.VOBFormat : MPEG-PSFile size : 102 MiBDuration : 1 min 41 sOverall bit rate mode : ConstantOverall bit rate : 8 380 kb/s
VideoID : 224 (0xE0)Format : MPEG VideoFormat version : Version 2Format profile : Main@MainFormat settings : CustomMatrix / BVOPFormat settings, BVOP : YesFormat settings, Matrix : CustomFormat settings, GOP : M=2, N=4Format settings, picture structure : FrameDuration : 1 min 41 sBit rate mode : ConstantBit rate : 8 000 kb/sWidth : 720 pixelsHeight : 576 pixelsDisplay aspect ratio : 4:3Frame rate : 25.000 FPSStandard : PALColor space : YUVChroma subsampling : 4:2:0Bit depth : 8 bitsScan type : InterlacedScan order : Top Field FirstCompression mode : LossyBits/(Pixel*Frame) : 0.772Time code of first frame : 01:57:30:00Time code source : Group of pictures headerGOP, Open/Closed : ClosedStream size : 97.3 MiB (96%)
AudioID : 189 (0xBD)-128 (0x80)Format : AC-3Format/Info : Audio Coding 3Muxing mode : DVD-VideoDuration : 1 min 41 sBit rate mode : ConstantBit rate : 192 kb/sChannel(s) : 2 channelsChannel positions : Front: L RSampling rate : 48.0 kHzFrame rate : 31.250 FPS (1536 SPF)Bit depth : 16 bitsCompression mode : LossyStream size : 2.33 MiB (2%)Service kind : Complete Main
Menu

Скриншоты меню

Скриншоты доп. материалов

[Profile]  [PM] 
Display posts:    
Reply to topic

Current time is: 20-Jan 18:59

All times are UTC + 2



You cannot post new topics in this forum
You cannot reply to topics in this forum
You cannot edit your posts in this forum
You cannot delete your posts in this forum
You cannot vote in polls in this forum
You cannot attach files in this forum
You cannot download files in this forum