К-911: Собачья работа 2 / K-911 (Чарлз Т. Кэнгэнис / Charles T. Kanganis) [1999, США, боевик, комедия, DVB] [Fullscreen] MVO (ОРТ) + Original Eng

Reply to topic
 
Author
Message

Satyr ®

Online

Gender: Unknown

Longevity: 10 years

Posts: 13095

Reputation: 54 [+] [-]

Satyr · Post 11-Jan-2019 06:45

[Quote] 

К-911: Собачья работа 2 / K-911 / Fullscreen
Страна: США
Жанр: боевик, комедия
Год выпуска: 1999
Продолжительность: 01:23:51
Перевод: Профессиональный (многоголосый закадровый) ОРТ
Субтитры: нет
Оригинальная аудиодорожка: английский
Режиссер: Чарлз Т. Кэнгэнис / Charles T. Kanganis
В ролях: Джеймс Белуши, Кристин Туччи, Джеймс Хэнди, Уэйд Уильямс, Дж.Дж. Джонстон, Joe Palese, Скотч Эллис Лоринг, Винсент Кастелланос, Timoleo Flloko, Джо Сабатино.
Описание: Заслуженный детектив Дули и его верный напарник, настоящий полицейский пес Джерри Ли, по — прежнему стоят на страже порядка, оберегая покой добропорядочных граждан. Эта легендарная полицейская пара уже давно съела собаку в деле отлова и последующего наказания преступников всех мастей. Управление полиции решило оказать поддержку героическому тандему «К-9» в их нелегком деле, определив им в помощь двух образцовых сотрудников и очаровательную даму — детектива по имени Уэллес и ее свирепого партнера, вышколенного добермана по кличке Зевс. Всему этому разношерстному полицейскому квартету предстоит трудное задание по поимке опаснейшего преступника.
Доп. информация: Запись с канала СТС. Есть пара штук всплывающей рекламы
дороги взяты из этой раздачи
Сэмпл: https://yadi.sk/i/_J0FTpqNmv_5qg
Качество видео: DVB
Формат видео: MKV
Видео: AVC, 720x576, 4:3, 25 fps, 2957 Kbps
Аудио: (Rus) AC3, 2 ch, 48.0 KHz, 192 Kbps
Аудио 2: (Eng) AC3, 2 ch, 48.0 KHz, 192 Kbps

MediaInfo

GeneralUnique ID                   : 188611666115246259135974053049876093456 (0x8DE5491AABB088C9BAAA43C17DDC1A10)Complete name               : D:\К-911. Собачья работа 2 (1999) Fullscreen.mkvFormat                      : MatroskaFormat version              : Version 4 / Version 2File size                   : 2.00 GiBDuration                    : 1h 23mnOverall bit rate            : 3 409 KbpsEncoded date                : UTC 2019-01-09 14:28:08Writing application         : mkvmerge v6.4.1 ('Omega Point') built on Sep 16 2013 22:05:10Writing library             : libebml v1.3.0 + libmatroska v1.4.1
VideoID : 1Format : AVCFormat/Info : Advanced Video CodecFormat profile : High@L3Format settings, CABAC : YesFormat settings, ReFrames : 3 framesFormat settings, GOP : M=4, N=28Codec ID : V_MPEG4/ISO/AVCDuration : 1h 23mnBit rate : 2 957 KbpsWidth : 720 pixelsHeight : 576 pixelsDisplay aspect ratio : 4:3Original display aspect rat : 4:3Frame rate mode : ConstantOriginal frame rate : 25.000 fpsStandard : ComponentColor space : YUVChroma subsampling : 4:2:0Bit depth : 8 bitsScan type : InterlacedScan order : Top Field FirstBits/(Pixel*Frame) : 0.304Stream size : 1.73 GiB (87%)Default : YesForced : NoColor range : LimitedColor primaries : BT.601 PALTransfer characteristics : BT.470 System B, BT.470 System GMatrix coefficients : BT.601
Audio #1ID : 2Format : AC-3Format/Info : Audio Coding 3Mode extension : CM (complete main)Format settings, Endianness : BigCodec ID : A_AC3Duration : 1h 23mnBit rate mode : ConstantBit rate : 192 KbpsChannel(s) : 2 channelsChannel positions : Front: L RSampling rate : 48.0 KHzCompression mode : LossyDelay relative to video : 50msStream size : 115 MiB (6%)Language : RussianDefault : YesForced : No
Audio #2ID : 3Format : AC-3Format/Info : Audio Coding 3Mode extension : CM (complete main)Format settings, Endianness : BigCodec ID : A_AC3Duration : 1h 23mnBit rate mode : ConstantBit rate : 192 KbpsChannel(s) : 2 channelsChannel positions : Front: L RSampling rate : 48.0 KHzCompression mode : LossyDelay relative to video : 50msStream size : 115 MiB (6%)Language : EnglishDefault : NoForced : No

Скриншот c названием фильма

Скриншоты

Сравнения

сравнение с WEB-DLRip


Просьба не уходить с раздачи
[Profile]  [PM] 
Display posts:    
Reply to topic

Current time is: 21-May 01:11

All times are UTC + 2



You cannot post new topics in this forum
You cannot reply to topics in this forum
You cannot edit your posts in this forum
You cannot delete your posts in this forum
You cannot vote in polls in this forum
You cannot attach files in this forum
You cannot download files in this forum