Чеченский капкан (5 из 5 серий) (Максим Смирнов) [2004, Документальный сериал (военно-политический), 5 х DVD5]

Reply to topic
 
Author
Message

Atila ®

Gender: Unknown

Longevity: 7 years 7 months

Posts: 2530

Reputation: 0 [+] [-]

Atila · Post 15-Apr-2019 14:05

[Quote] 

Чеченский капкан (5 из 5 серий)
Год выпуска: 2004
Страна: Россия
Жанр: Документальный сериал (военно-политический)
Продолжительность: 3:58:30
Перевод: Не требуется
Русские субтитры: нет
Режиссер: Максим Смирнов
Меню: есть, язык русский, статичное
Описание:
Документальный фильм, повествующий о событиях в Чечне и РФ c 1989 по первую половину 2000-х. Фильм охватывает ключевые события 2-х чеченских войн, состоит из 5 частей и содержит кадры хроники и оперативных съемок.
Содержание:

Чеченский капкан. 1 серия."Заговор" (00:49:09)

Чеченский капкан. 1 серия. Заговор
Режиссер: Максим Смирнов
Сценарий: Андрей Кузьминов
Продолжительность: 00:49:09
Меню: Есть, на русском, статичное, неозвученное
Описание:
Эксклюзивные кадры хроники событий периода прихода Дудаева к власти в Чечне 1991-1994 гг.
Свидетельства непосредственных участников событий тех лет о том, что же в действительности
стояло за приходом мятежного генерала к власти. Раскрываются тайны политической борьбы в
Кремле, которые положили начало возникновению чеченского конфликта.

Качество: DVD5(Custom)
Формат: DVD-Video
Видеокодек: MPEG2
Аудиокодек: AC3
Видео: PAL 4:3, 25.000 fps, битрейт (средний 6 294 Kbps, максимальный 6 556 Kbps)
Аудио: Russian (Dolby AC3, 2 ch) 256 Kbps 48.0 KHz

DVD-1 скриншоты фильма

DVD-1 скриншоты меню

DVD-1 Сэмпл

Сэмпл

DVD-1 Отчёт DVDinfo

Title: 1 - ЗАГОВОР
Size: 2.28 Gb ( 2 395 708,00 KBytes ) - DVD-5
Enabled regions: 1, 2, 3, 4, 5, 6
VTS_01 :
Play Length: 00:49:08
Video: PAL 4:3 (720x576) VBR
Audio:
Not specified (Dolby AC3, 2 ch)
* Menus Information *
VIDEO_TS Menu
Video:
PAL 4:3 (720x576) VBR
Language Unit :
Title Menu
VTS_01 Menu
Video:
NTSC 4:3 (720x480) VBR
Auto Pan&Scan, Auto Letterboxed
Language Unit :
Root Menu

DVD-1 Отчёт MediaInfo

Общее
VIDEO_TS\VIDEO_TS.BUP
Формат : DVD Video
Профиль формата : Menu
Размер файла : 160 Кбайт
Режим общего битрейта : Переменный
FileExtension_Invalid : ifo
Видео
Идентификатор : 224 (0xE0)
Формат : MPEG Video
Версия формата : Version 2
Вид битрейта : Переменный
Ширина : 720 пикселей
Высота : 576 пикселей
Соотношение сторон : 4:3
Частота кадров : 25,000 кадров/сек
Стандарт вещания : PAL
Метод сжатия : С потерями
Текст
Формат : RLE
Формат/Информация : Run-length encoding
Битовая глубина : 2 бит
Общее
VIDEO_TS\VIDEO_TS.IFO
Формат : DVD Video
Профиль формата : Menu
Размер файла : 160 Кбайт
Режим общего битрейта : Переменный
Видео
Идентификатор : 224 (0xE0)
Формат : MPEG Video
Версия формата : Version 2
Вид битрейта : Переменный
Ширина : 720 пикселей
Высота : 576 пикселей
Соотношение сторон : 4:3
Частота кадров : 25,000 кадров/сек
Стандарт вещания : PAL
Метод сжатия : С потерями
Текст
Формат : RLE
Формат/Информация : Run-length encoding
Битовая глубина : 2 бит
Общее
VIDEO_TS\VIDEO_TS.VOB
Формат : MPEG-PS
Размер файла : 44,0 Кбайт
Продолжительность : 40 мс.
Режим общего битрейта : Переменный
Общий поток : 9011 Кбит/сек
Видео
Идентификатор : 224 (0xE0)
Формат : MPEG Video
Версия формата : Version 2
Профиль формата : Main@Main
Параметр BVOP формата : Нет
Параметр матрицы формата : По умолчанию
Продолжительность : 40 мс.
Вид битрейта : Переменный
Максимальный битрейт : 4000 Кбит/сек
Ширина : 720 пикселей
Высота : 576 пикселей
Соотношение сторон : 4:3
Частота кадров : 25,000 кадров/сек
Стандарт вещания : PAL
Цветовое пространство : YUV
Субдискретизация насыщенности : 4:2:0
Битовая глубина : 8 бит
Тип развёртки : Прогрессивная
Порядок развёртки : Верхнее поле первое
Метод сжатия : С потерями
Временной код первого кадра : 00:00:00;00
Оригинал временного кода : Group of pictures header
Текст
Идентификатор : 189 (0xBD)-32 (0x20)
Формат : RLE
Формат/Информация : Run-length encoding
Режим смешивания : DVD-Video
Меню
Общее
VIDEO_TS\VTS_01_0.BUP
Формат : DVD Video
Профиль формата : Program
Размер файла : 96,0 Кбайт
Продолжительность : 49 м. 8 с.
Режим общего битрейта : Переменный
Общий поток : 267 бит/сек
FileExtension_Invalid : ifo
Видео
Идентификатор : 224 (0xE0)
Формат : MPEG Video
Версия формата : Version 2
Продолжительность : 49 м. 8 с.
Вид битрейта : Переменный
Ширина : 720 пикселей
Высота : 576 пикселей
Соотношение сторон : 4:3
Частота кадров : 25,000 кадров/сек
Стандарт вещания : PAL
Метод сжатия : С потерями
Аудио
Идентификатор : 128 (0x80)
Формат : AC-3
Формат/Информация : Audio Coding 3
Продолжительность : 49 м. 8 с.
Каналы : 2 канала
Частота : 48,0 КГц
Метод сжатия : С потерями
Меню
Продолжительность : 49 м. 8 с.
00:00:00.000 : Chapter 1
00:10:00.480 : Chapter 2
00:20:00.480 : Chapter 3
00:30:00.480 : Chapter 4
00:40:00.480 : Chapter 5
List (Audio) : 0
Общее
VIDEO_TS\VTS_01_0.IFO
Формат : DVD Video
Профиль формата : Program
Размер файла : 96,0 Кбайт
Продолжительность : 49 м. 8 с.
Режим общего битрейта : Переменный
Общий поток : 267 бит/сек
Видео
Идентификатор : 224 (0xE0)
Формат : MPEG Video
Версия формата : Version 2
Продолжительность : 49 м. 8 с.
Вид битрейта : Переменный
Ширина : 720 пикселей
Высота : 576 пикселей
Соотношение сторон : 4:3
Частота кадров : 25,000 кадров/сек
Стандарт вещания : PAL
Метод сжатия : С потерями
Аудио
Идентификатор : 128 (0x80)
Формат : AC-3
Формат/Информация : Audio Coding 3
Продолжительность : 49 м. 8 с.
Каналы : 2 канала
Частота : 48,0 КГц
Метод сжатия : С потерями
Меню
Продолжительность : 49 м. 8 с.
00:00:00.000 : Chapter 1
00:10:00.480 : Chapter 2
00:20:00.480 : Chapter 3
00:30:00.480 : Chapter 4
00:40:00.480 : Chapter 5
List (Audio) : 0
Общее
VIDEO_TS\VTS_01_1.VOB
Формат : MPEG-PS
Размер файла : 938 Мбайт
Продолжительность : 19 м. 49 с.
Режим общего битрейта : Переменный
Общий поток : 6613 Кбит/сек
Видео
Идентификатор : 224 (0xE0)
Формат : MPEG Video
Версия формата : Version 2
Профиль формата : Main@Main
Настройки формата : CustomMatrix / BVOP
Параметр BVOP формата : Да
Параметр матрицы формата : Выборочная
Параметр GOP формата : M=3, N=12
Структура изображения : Frame
Продолжительность : 19 м. 49 с.
Вид битрейта : Переменный
Битрейт : 6225 Кбит/сек
Максимальный битрейт : 6556 Кбит/сек
Ширина : 720 пикселей
Высота : 576 пикселей
Соотношение сторон : 4:3
Частота кадров : 25,000 кадров/сек
Стандарт вещания : PAL
Цветовое пространство : YUV
Субдискретизация насыщенности : 4:2:0
Битовая глубина : 8 бит
Тип развёртки : Чересстрочная
Порядок развёртки : Верхнее поле первое
Метод сжатия : С потерями
Бит/(Пиксели*Кадры) : 0.600
Временной код первого кадра : 00:00:00:00
Оригинал временного кода : Group of pictures header
GOP, открыто/закрыто : Открыто
GOP, открыто/закрыто на первом кадре : Закрыто
Размер потока : 883 Мбайт (94%)
Аудио
Идентификатор : 189 (0xBD)-128 (0x80)
Формат : AC-3
Формат/Информация : Audio Coding 3
Коммерческое название : Dolby Digital
Режим смешивания : DVD-Video
Продолжительность : 19 м. 49 с.
Вид битрейта : Постоянный
Битрейт : 256 Кбит/сек
Каналы : 2 канала
Channel layout : L R
Частота : 48,0 КГц
Частота кадров : 31,250 кадров/сек (1536 SPF)
Битовая глубина : 16 бит
Метод сжатия : С потерями
Размер потока : 36,3 Мбайт (4%)
ServiceKind/String : Complete Main
Меню
Общее
VIDEO_TS\VTS_01_2.VOB
Формат : MPEG-PS
Размер файла : 938 Мбайт
Продолжительность : 19 м. 36 с.
Режим общего битрейта : Переменный
Общий поток : 6683 Кбит/сек
Видео
Идентификатор : 224 (0xE0)
Формат : MPEG Video
Версия формата : Version 2
Профиль формата : Main@Main
Настройки формата : CustomMatrix / BVOP
Параметр BVOP формата : Да
Параметр матрицы формата : Выборочная
Параметр GOP формата : M=3, N=12
Структура изображения : Frame
Продолжительность : 19 м. 36 с.
Вид битрейта : Переменный
Битрейт : 6294 Кбит/сек
Максимальный битрейт : 6556 Кбит/сек
Ширина : 720 пикселей
Высота : 576 пикселей
Соотношение сторон : 4:3
Частота кадров : 25,000 кадров/сек
Стандарт вещания : PAL
Цветовое пространство : YUV
Субдискретизация насыщенности : 4:2:0
Битовая глубина : 8 бит
Тип развёртки : Чересстрочная
Порядок развёртки : Верхнее поле первое
Метод сжатия : С потерями
Бит/(Пиксели*Кадры) : 0.607
Временной код первого кадра : 00:19:49:11
Оригинал временного кода : Group of pictures header
GOP, открыто/закрыто : Открыто
Размер потока : 883 Мбайт (94%)
Аудио
Идентификатор : 189 (0xBD)-128 (0x80)
Формат : AC-3
Формат/Информация : Audio Coding 3
Коммерческое название : Dolby Digital
Режим смешивания : DVD-Video
Продолжительность : 19 м. 36 с.
Вид битрейта : Постоянный
Битрейт : 256 Кбит/сек
Каналы : 2 канала
Channel layout : L R
Частота : 48,0 КГц
Частота кадров : 31,250 кадров/сек (1536 SPF)
Битовая глубина : 16 бит
Метод сжатия : С потерями
Задержка видео : -368 мс.
Размер потока : 35,9 Мбайт (4%)
ServiceKind/String : Complete Main
Меню
Общее
VIDEO_TS\VTS_01_3.VOB
Формат : MPEG-PS
Размер файла : 464 Мбайт
Продолжительность : 9 м. 42 с.
Режим общего битрейта : Переменный
Общий поток : 6679 Кбит/сек
Видео
Идентификатор : 224 (0xE0)
Формат : MPEG Video
Версия формата : Version 2
Профиль формата : Main@Main
Настройки формата : CustomMatrix / BVOP
Параметр BVOP формата : Да
Параметр матрицы формата : Выборочная
Параметр GOP формата : M=3, N=12
Структура изображения : Frame
Продолжительность : 9 м. 42 с.
Вид битрейта : Переменный
Битрейт : 6290 Кбит/сек
Максимальный битрейт : 6556 Кбит/сек
Ширина : 720 пикселей
Высота : 576 пикселей
Соотношение сторон : 4:3
Частота кадров : 25,000 кадров/сек
Стандарт вещания : PAL
Цветовое пространство : YUV
Субдискретизация насыщенности : 4:2:0
Битовая глубина : 8 бит
Тип развёртки : Чересстрочная
Порядок развёртки : Верхнее поле первое
Метод сжатия : С потерями
Бит/(Пиксели*Кадры) : 0.607
Временной код первого кадра : 00:39:26:10
Оригинал временного кода : Group of pictures header
GOP, открыто/закрыто : Открыто
Размер потока : 437 Мбайт (94%)
Аудио
Идентификатор : 189 (0xBD)-128 (0x80)
Формат : AC-3
Формат/Информация : Audio Coding 3
Коммерческое название : Dolby Digital
Режим смешивания : DVD-Video
Продолжительность : 9 м. 42 с.
Вид битрейта : Постоянный
Битрейт : 256 Кбит/сек
Каналы : 2 канала
Channel layout : L R
Частота : 48,0 КГц
Частота кадров : 31,250 кадров/сек (1536 SPF)
Битовая глубина : 16 бит
Метод сжатия : С потерями
Задержка видео : -368 мс.
Размер потока : 17,8 Мбайт (4%)
ServiceKind/String : Complete Main

Чеченский капкан. 2 серия."Штурм" (00:49:23)

Чеченский капкан. 2 серия. Штурм
Режиссер: Максим Смирнов
Сценарий: Андрей Кузьминов
Продолжительность: 00:49:23
Меню: Есть, на русском, статичное, неозвученное
Описание:
Ввод войск и начало первой чеченской кампании. Свидетельства солдат и офицеров, участников
начала войны. Эксклюзивные кадры новогоднего штурма. Гибель 131 майкопской бригады.
Малоизвестные детали штурма чеченской столицы. Фильм основан на кадрах трофейной
видеозаписи. Взгляд на эту войну людей, находящихся по обе стороны конфликта: российских
солдат и чеченских боевиков.

Качество: DVD5(Custom)
Формат: DVD-Video
Видеокодек: MPEG2
Аудиокодек: AC3
Видео: PAL 4:3, 25.000 fps, битрейт (средний 6 297 Kbps, максимальный 6 556 Kbps)
Аудио: Russian (Dolby AC3, 2 ch) 256 Kbps 48.0 KHz

DVD-2 скриншоты фильма

DVD-2 скриншоты меню

DVD-2 Сэмпл

Сэмпл

DVD-2 Отчёт DVDinfo

Title: 2 - ШТУРМ
Size: 2.30 Gb ( 2 407 230,00 KBytes ) - DVD-5
Enabled regions: 1, 2, 3, 4, 5, 6
VTS_01 :
Play Length: 00:49:23
Video: PAL 4:3 (720x576) VBR
Audio:
Not specified (Dolby AC3, 2 ch)
* Menus Information *
VIDEO_TS Menu
Video:
PAL 4:3 (720x576) VBR
Language Unit :
Title Menu
VTS_01 Menu
Video:
NTSC 4:3 (720x480) VBR
Auto Pan&Scan, Auto Letterboxed
Language Unit :
Root Menu

DVD-2 Отчёт MediaInfo

Общее
VIDEO_TS\VIDEO_TS.BUP
Формат : DVD Video
Профиль формата : Menu
Размер файла : 160 Кбайт
Режим общего битрейта : Переменный
FileExtension_Invalid : ifo
Видео
Идентификатор : 224 (0xE0)
Формат : MPEG Video
Версия формата : Version 2
Вид битрейта : Переменный
Ширина : 720 пикселей
Высота : 576 пикселей
Соотношение сторон : 4:3
Частота кадров : 25,000 кадров/сек
Стандарт вещания : PAL
Метод сжатия : С потерями
Текст
Формат : RLE
Формат/Информация : Run-length encoding
Битовая глубина : 2 бит
Общее
VIDEO_TS\VIDEO_TS.IFO
Формат : DVD Video
Профиль формата : Menu
Размер файла : 160 Кбайт
Режим общего битрейта : Переменный
Видео
Идентификатор : 224 (0xE0)
Формат : MPEG Video
Версия формата : Version 2
Вид битрейта : Переменный
Ширина : 720 пикселей
Высота : 576 пикселей
Соотношение сторон : 4:3
Частота кадров : 25,000 кадров/сек
Стандарт вещания : PAL
Метод сжатия : С потерями
Текст
Формат : RLE
Формат/Информация : Run-length encoding
Битовая глубина : 2 бит
Общее
VIDEO_TS\VIDEO_TS.VOB
Формат : MPEG-PS
Размер файла : 44,0 Кбайт
Продолжительность : 40 мс.
Режим общего битрейта : Переменный
Общий поток : 9011 Кбит/сек
Видео
Идентификатор : 224 (0xE0)
Формат : MPEG Video
Версия формата : Version 2
Профиль формата : Main@Main
Параметр BVOP формата : Нет
Параметр матрицы формата : По умолчанию
Продолжительность : 40 мс.
Вид битрейта : Переменный
Максимальный битрейт : 4000 Кбит/сек
Ширина : 720 пикселей
Высота : 576 пикселей
Соотношение сторон : 4:3
Частота кадров : 25,000 кадров/сек
Стандарт вещания : PAL
Цветовое пространство : YUV
Субдискретизация насыщенности : 4:2:0
Битовая глубина : 8 бит
Тип развёртки : Прогрессивная
Порядок развёртки : Верхнее поле первое
Метод сжатия : С потерями
Временной код первого кадра : 00:00:00;00
Оригинал временного кода : Group of pictures header
Текст
Идентификатор : 189 (0xBD)-32 (0x20)
Формат : RLE
Формат/Информация : Run-length encoding
Режим смешивания : DVD-Video
Меню
Общее
Полное имя VIDEO_TS\VTS_01_0.BUP
Формат : DVD Video
Профиль формата : Program
Размер файла : 96,0 Кбайт
Продолжительность : 49 м. 23 с.
Режим общего битрейта : Переменный
Общий поток : 265 бит/сек
FileExtension_Invalid : ifo
Видео
Идентификатор : 224 (0xE0)
Формат : MPEG Video
Версия формата : Version 2
Продолжительность : 49 м. 23 с.
Вид битрейта : Переменный
Ширина : 720 пикселей
Высота : 576 пикселей
Соотношение сторон : 4:3
Частота кадров : 25,000 кадров/сек
Стандарт вещания : PAL
Метод сжатия : С потерями
Аудио
Идентификатор : 128 (0x80)
Формат : AC-3
Формат/Информация : Audio Coding 3
Продолжительность : 49 м. 23 с.
Каналы : 2 канала
Частота : 48,0 КГц
Метод сжатия : С потерями
Меню
Продолжительность : 49 м. 23 с.
00:00:00.000 : Chapter 1
00:10:00.480 : Chapter 2
00:20:00.480 : Chapter 3
00:30:00.480 : Chapter 4
00:40:00.480 : Chapter 5
List (Audio) : 0
Общее
Полное имя VIDEO_TS\VTS_01_0.IFO
Формат : DVD Video
Профиль формата : Program
Размер файла : 96,0 Кбайт
Продолжительность : 49 м. 23 с.
Режим общего битрейта : Переменный
Общий поток : 265 бит/сек
Видео
Идентификатор : 224 (0xE0)
Формат : MPEG Video
Версия формата : Version 2
Продолжительность : 49 м. 23 с.
Вид битрейта : Переменный
Ширина : 720 пикселей
Высота : 576 пикселей
Соотношение сторон : 4:3
Частота кадров : 25,000 кадров/сек
Стандарт вещания : PAL
Метод сжатия : С потерями
Аудио
Идентификатор : 128 (0x80)
Формат : AC-3
Формат/Информация : Audio Coding 3
Продолжительность : 49 м. 23 с.
Каналы : 2 канала
Частота : 48,0 КГц
Метод сжатия : С потерями
Меню
Продолжительность : 49 м. 23 с.
00:00:00.000 : Chapter 1
00:10:00.480 : Chapter 2
00:20:00.480 : Chapter 3
00:30:00.480 : Chapter 4
00:40:00.480 : Chapter 5
List (Audio) : 0
Общее
Полное имя : VIDEO_TS\VTS_01_1.VOB
Формат : MPEG-PS
Размер файла : 938 Мбайт
Продолжительность : 19 м. 49 с.
Режим общего битрейта : Переменный
Общий поток : 6613 Кбит/сек
Видео
Идентификатор : 224 (0xE0)
Формат : MPEG Video
Версия формата : Version 2
Профиль формата : Main@Main
Настройки формата : CustomMatrix / BVOP
Параметр BVOP формата : Да
Параметр матрицы формата : Выборочная
Параметр GOP формата : M=3, N=12
Структура изображения : Frame
Продолжительность : 19 м. 49 с.
Вид битрейта : Переменный
Битрейт : 6225 Кбит/сек
Максимальный битрейт : 6556 Кбит/сек
Ширина : 720 пикселей
Высота : 576 пикселей
Соотношение сторон : 4:3
Частота кадров : 25,000 кадров/сек
Стандарт вещания : PAL
Цветовое пространство : YUV
Субдискретизация насыщенности : 4:2:0
Битовая глубина : 8 бит
Тип развёртки : Чересстрочная
Порядок развёртки : Верхнее поле первое
Метод сжатия : С потерями
Бит/(Пиксели*Кадры) : 0.600
Временной код первого кадра : 00:00:00:00
Оригинал временного кода : Group of pictures header
GOP, открыто/закрыто : Открыто
GOP, открыто/закрыто на первом кадре : Закрыто
Размер потока : 883 Мбайт (94%)
Аудио
Идентификатор : 189 (0xBD)-128 (0x80)
Формат : AC-3
Формат/Информация : Audio Coding 3
Коммерческое название : Dolby Digital
Режим смешивания : DVD-Video
Продолжительность : 19 м. 49 с.
Вид битрейта : Постоянный
Битрейт : 256 Кбит/сек
Каналы : 2 канала
Channel layout : L R
Частота : 48,0 КГц
Частота кадров : 31,250 кадров/сек (1536 SPF)
Битовая глубина : 16 бит
Метод сжатия : С потерями
Размер потока : 36,3 Мбайт (4%)
ServiceKind/String : Complete Main
Меню
Общее
Полное имя : VIDEO_TS\VTS_01_2.VOB
Формат : MPEG-PS
Размер файла : 938 Мбайт
Продолжительность : 19 м. 36 с.
Режим общего битрейта : Переменный
Общий поток : 6686 Кбит/сек
Видео
Идентификатор : 224 (0xE0)
Формат : MPEG Video
Версия формата : Version 2
Профиль формата : Main@Main
Настройки формата : CustomMatrix / BVOP
Параметр BVOP формата : Да
Параметр матрицы формата : Выборочная
Параметр GOP формата : M=3, N=12
Структура изображения : Frame
Продолжительность : 19 м. 36 с.
Вид битрейта : Переменный
Битрейт : 6297 Кбит/сек
Максимальный битрейт : 6556 Кбит/сек
Ширина : 720 пикселей
Высота : 576 пикселей
Соотношение сторон : 4:3
Частота кадров : 25,000 кадров/сек
Стандарт вещания : PAL
Цветовое пространство : YUV
Субдискретизация насыщенности : 4:2:0
Битовая глубина : 8 бит
Тип развёртки : Чересстрочная
Порядок развёртки : Верхнее поле первое
Метод сжатия : С потерями
Бит/(Пиксели*Кадры) : 0.607
Временной код первого кадра : 00:19:49:11
Оригинал временного кода : Group of pictures header
GOP, открыто/закрыто : Открыто
Размер потока : 883 Мбайт (94%)
Аудио
Идентификатор : 189 (0xBD)-128 (0x80)
Формат : AC-3
Формат/Информация : Audio Coding 3
Коммерческое название : Dolby Digital
Режим смешивания : DVD-Video
Продолжительность : 19 м. 36 с.
Вид битрейта : Постоянный
Битрейт : 256 Кбит/сек
Каналы : 2 канала
Channel layout : L R
Частота : 48,0 КГц
Частота кадров : 31,250 кадров/сек (1536 SPF)
Битовая глубина : 16 бит
Метод сжатия : С потерями
Задержка видео : -304 мс.
Размер потока : 35,9 Мбайт (4%)
ServiceKind/String : Complete Main
Меню
Общее
Полное имя : VIDEO_TS\VTS_01_3.VOB
Формат : MPEG-PS
Размер файла : 475 Мбайт
Продолжительность : 9 м. 57 с.
Режим общего битрейта : Переменный
Общий поток : 6671 Кбит/сек
Видео
Идентификатор : 224 (0xE0)
Формат : MPEG Video
Версия формата : Version 2
Профиль формата : Main@Main
Настройки формата : CustomMatrix / BVOP
Параметр BVOP формата : Да
Параметр матрицы формата : Выборочная
Параметр GOP формата : M=3, N=12
Структура изображения : Frame
Продолжительность : 9 м. 57 с.
Вид битрейта : Переменный
Битрейт : 6282 Кбит/сек
Максимальный битрейт : 6556 Кбит/сек
Ширина : 720 пикселей
Высота : 576 пикселей
Соотношение сторон : 4:3
Частота кадров : 25,000 кадров/сек
Стандарт вещания : PAL
Цветовое пространство : YUV
Субдискретизация насыщенности : 4:2:0
Битовая глубина : 8 бит
Тип развёртки : Чересстрочная
Порядок развёртки : Верхнее поле первое
Метод сжатия : С потерями
Бит/(Пиксели*Кадры) : 0.606
Временной код первого кадра : 00:39:25:23
Оригинал временного кода : Group of pictures header
GOP, открыто/закрыто : Открыто
Размер потока : 447 Мбайт (94%)
Аудио
Идентификатор : 189 (0xBD)-128 (0x80)
Формат : AC-3
Формат/Информация : Audio Coding 3
Коммерческое название : Dolby Digital
Режим смешивания : DVD-Video
Продолжительность : 9 м. 57 с.
Вид битрейта : Постоянный
Битрейт : 256 Кбит/сек
Каналы : 2 канала
Channel layout : L R
Частота : 48,0 КГц
Частота кадров : 31,250 кадров/сек (1536 SPF)
Битовая глубина : 16 бит
Метод сжатия : С потерями
Задержка видео : -336 мс.
Размер потока : 18,2 Мбайт (4%)
ServiceKind/String : Complete Main

Чеченский капкан. 3 серия."Измена" (00:51:06)

Чеченский капкан. 3 серия. Измена
Режиссер: Максим Смирнов
Авторская группа: Игорь Прокопенко, Алексей Перевощиков, Артем Иутенков
Продолжительность: 00:51:06
Меню: Есть, на русском, статичное, неозвученное
Описание:
После затяжного и кровопролитного штурма чеченской столицы зимой 1995 года федеральным
войскам удается сломить сопротивление дудаевцев и загнать боевиков в горы. Но неожиданно в
боевые действия вмешивается Кремль. Частые перемирия и смертоносный рейд еще мало кому
известного полевого командира Шамиля Басаева в Будденовск ставят в тупик огромную военную
машину. Именно в это время в мятежной республике всходят молодые побеги террора.

Качество: DVD5(Custom)
Формат: DVD-Video
Видеокодек: MPEG2
Аудиокодек: AC3
Видео: PAL 4:3, 25.000 fps, битрейт (средний 6 295 Kbps, максимальный 6 556 Kbps)
Аудио: Russian (Dolby AC3, 2 ch) 256 Kbps 48.0 KHz

DVD-3 скриншоты фильма

DVD-3 скриншоты меню

DVD-3 Сэмпл

Сэмпл

DVD-3 Отчёт DVDinfo

Title: 3 - ИЗМЕНА
Size: 2.38 Gb ( 2 491 146,00 KBytes ) - DVD-5
Enabled regions: 1, 2, 3, 4, 5, 6
VTS_01 :
Play Length: 00:51:05
Video: PAL 4:3 (720x576) VBR
Audio:
Not specified (Dolby AC3, 2 ch)
* Menus Information *
VIDEO_TS Menu
Video:
PAL 4:3 (720x576) VBR
Language Unit :
Title Menu
VTS_01 Menu
Video:
NTSC 4:3 (720x480) VBR
Auto Pan&Scan, Auto Letterboxed
Language Unit :
Root Menu

DVD-3 Отчёт MediaInfo

Общее
Полное имя : VIDEO_TS\VIDEO_TS.BUP
Формат : DVD Video
Профиль формата : Menu
Размер файла : 160 Кбайт
Режим общего битрейта : Переменный
FileExtension_Invalid : ifo
Видео
Идентификатор : 224 (0xE0)
Формат : MPEG Video
Версия формата : Version 2
Вид битрейта : Переменный
Ширина : 720 пикселей
Высота : 576 пикселей
Соотношение сторон : 4:3
Частота кадров : 25,000 кадров/сек
Стандарт вещания : PAL
Метод сжатия : С потерями
Текст
Формат : RLE
Формат/Информация : Run-length encoding
Битовая глубина : 2 бит
Общее
Полное имя : VIDEO_TS\VIDEO_TS.IFO
Формат : DVD Video
Профиль формата : Menu
Размер файла : 160 Кбайт
Режим общего битрейта : Переменный
Видео
Идентификатор : 224 (0xE0)
Формат : MPEG Video
Версия формата : Version 2
Вид битрейта : Переменный
Ширина : 720 пикселей
Высота : 576 пикселей
Соотношение сторон : 4:3
Частота кадров : 25,000 кадров/сек
Стандарт вещания : PAL
Метод сжатия : С потерями
Текст
Формат : RLE
Формат/Информация : Run-length encoding
Битовая глубина : 2 бит
Общее
Полное имя : VIDEO_TS\VIDEO_TS.VOB
Формат : MPEG-PS
Размер файла : 40,0 Кбайт
Продолжительность : 40 мс.
Режим общего битрейта : Переменный
Общий поток : 8192 Кбит/сек
Видео
Идентификатор : 224 (0xE0)
Формат : MPEG Video
Версия формата : Version 2
Профиль формата : Main@Main
Параметр BVOP формата : Нет
Параметр матрицы формата : По умолчанию
Продолжительность : 40 мс.
Вид битрейта : Переменный
Максимальный битрейт : 4000 Кбит/сек
Ширина : 720 пикселей
Высота : 576 пикселей
Соотношение сторон : 4:3
Частота кадров : 25,000 кадров/сек
Стандарт вещания : PAL
Цветовое пространство : YUV
Субдискретизация насыщенности : 4:2:0
Битовая глубина : 8 бит
Тип развёртки : Прогрессивная
Порядок развёртки : Верхнее поле первое
Метод сжатия : С потерями
Временной код первого кадра : 00:00:00;00
Оригинал временного кода : Group of pictures header
Текст
Идентификатор : 189 (0xBD)-32 (0x20)
Формат : RLE
Формат/Информация : Run-length encoding
Режим смешивания : DVD-Video
Меню
Общее
Полное имя : VIDEO_TS\VTS_01_0.BUP
Формат : DVD Video
Профиль формата : Program
Размер файла : 96,0 Кбайт
Продолжительность : 51 м. 5 с.
Режим общего битрейта : Переменный
Общий поток : 257 бит/сек
FileExtension_Invalid : ifo
Видео
Идентификатор : 224 (0xE0)
Формат : MPEG Video
Версия формата : Version 2
Продолжительность : 51 м. 5 с.
Вид битрейта : Переменный
Ширина : 720 пикселей
Высота : 576 пикселей
Соотношение сторон : 4:3
Частота кадров : 25,000 кадров/сек
Стандарт вещания : PAL
Метод сжатия : С потерями
Аудио
Идентификатор : 128 (0x80)
Формат : AC-3
Формат/Информация : Audio Coding 3
Продолжительность : 51 м. 5 с.
Каналы : 2 канала
Частота : 48,0 КГц
Метод сжатия : С потерями
Меню
Продолжительность : 51 м. 5 с.
00:00:00.000 : Chapter 1
00:10:00.480 : Chapter 2
00:20:00.480 : Chapter 3
00:30:00.480 : Chapter 4
00:40:00.480 : Chapter 5
00:50:00.480 : Chapter 6
List (Audio) : 0
Общее
Полное имя : VIDEO_TS\VTS_01_0.IFO
Формат : DVD Video
Профиль формата : Program
Размер файла : 96,0 Кбайт
Продолжительность : 51 м. 5 с.
Режим общего битрейта : Переменный
Общий поток : 257 бит/сек
Видео
Идентификатор : 224 (0xE0)
Формат : MPEG Video
Версия формата : Version 2
Продолжительность : 51 м. 5 с.
Вид битрейта : Переменный
Ширина : 720 пикселей
Высота : 576 пикселей
Соотношение сторон : 4:3
Частота кадров : 25,000 кадров/сек
Стандарт вещания : PAL
Метод сжатия : С потерями
Аудио
Идентификатор : 128 (0x80)
Формат : AC-3
Формат/Информация : Audio Coding 3
Продолжительность : 51 м. 5 с.
Каналы : 2 канала
Частота : 48,0 КГц
Метод сжатия : С потерями
Меню
Продолжительность : 51 м. 5 с.
00:00:00.000 : Chapter 1
00:10:00.480 : Chapter 2
00:20:00.480 : Chapter 3
00:30:00.480 : Chapter 4
00:40:00.480 : Chapter 5
00:50:00.480 : Chapter 6
List (Audio) : 0
Общее
Полное имя : VIDEO_TS\VTS_01_1.VOB
Формат : MPEG-PS
Размер файла : 938 Мбайт
Продолжительность : 19 м. 49 с.
Режим общего битрейта : Переменный
Общий поток : 6613 Кбит/сек
Видео
Идентификатор : 224 (0xE0)
Формат : MPEG Video
Версия формата : Version 2
Профиль формата : Main@Main
Настройки формата : CustomMatrix / BVOP
Параметр BVOP формата : Да
Параметр матрицы формата : Выборочная
Параметр GOP формата : M=3, N=12
Структура изображения : Frame
Продолжительность : 19 м. 49 с.
Вид битрейта : Переменный
Битрейт : 6225 Кбит/сек
Максимальный битрейт : 6556 Кбит/сек
Ширина : 720 пикселей
Высота : 576 пикселей
Соотношение сторон : 4:3
Частота кадров : 25,000 кадров/сек
Стандарт вещания : PAL
Цветовое пространство : YUV
Субдискретизация насыщенности : 4:2:0
Битовая глубина : 8 бит
Тип развёртки : Чересстрочная
Порядок развёртки : Верхнее поле первое
Метод сжатия : С потерями
Бит/(Пиксели*Кадры) : 0.600
Временной код первого кадра : 00:00:00:00
Оригинал временного кода : Group of pictures header
GOP, открыто/закрыто : Открыто
GOP, открыто/закрыто на первом кадре : Закрыто
Размер потока : 883 Мбайт (94%)
Аудио
Идентификатор : 189 (0xBD)-128 (0x80)
Формат : AC-3
Формат/Информация : Audio Coding 3
Коммерческое название : Dolby Digital
Режим смешивания : DVD-Video
Продолжительность : 19 м. 49 с.
Вид битрейта : Постоянный
Битрейт : 256 Кбит/сек
Каналы : 2 канала
Channel layout : L R
Частота : 48,0 КГц
Частота кадров : 31,250 кадров/сек (1536 SPF)
Битовая глубина : 16 бит
Метод сжатия : С потерями
Размер потока : 36,3 Мбайт (4%)
ServiceKind/String : Complete Main
Меню
Общее
Полное имя : VIDEO_TS\VTS_01_2.VOB
Формат : MPEG-PS
Размер файла : 938 Мбайт
Продолжительность : 19 м. 36 с.
Режим общего битрейта : Переменный
Общий поток : 6684 Кбит/сек
Видео
Идентификатор : 224 (0xE0)
Формат : MPEG Video
Версия формата : Version 2
Профиль формата : Main@Main
Настройки формата : CustomMatrix / BVOP
Параметр BVOP формата : Да
Параметр матрицы формата : Выборочная
Параметр GOP формата : M=3, N=12
Структура изображения : Frame
Продолжительность : 19 м. 36 с.
Вид битрейта : Переменный
Битрейт : 6295 Кбит/сек
Максимальный битрейт : 6556 Кбит/сек
Ширина : 720 пикселей
Высота : 576 пикселей
Соотношение сторон : 4:3
Частота кадров : 25,000 кадров/сек
Стандарт вещания : PAL
Цветовое пространство : YUV
Субдискретизация насыщенности : 4:2:0
Битовая глубина : 8 бит
Тип развёртки : Чересстрочная
Порядок развёртки : Верхнее поле первое
Метод сжатия : С потерями
Бит/(Пиксели*Кадры) : 0.607
Временной код первого кадра : 00:19:49:11
Оригинал временного кода : Group of pictures header
GOP, открыто/закрыто : Открыто
Размер потока : 883 Мбайт (94%)
Аудио
Идентификатор : 189 (0xBD)-128 (0x80)
Формат : AC-3
Формат/Информация : Audio Coding 3
Коммерческое название : Dolby Digital
Режим смешивания : DVD-Video
Продолжительность : 19 м. 36 с.
Вид битрейта : Постоянный
Битрейт : 256 Кбит/сек
Каналы : 2 канала
Channel layout : L R
Частота : 48,0 КГц
Частота кадров : 31,250 кадров/сек (1536 SPF)
Битовая глубина : 16 бит
Метод сжатия : С потерями
Задержка видео : -368 мс.
Размер потока : 35,9 Мбайт (4%)
ServiceKind/String : Complete Main
Меню
Общее
Полное имя : VIDEO_TS\VTS_01_3.VOB
Формат : MPEG-PS
Размер файла : 557 Мбайт
Продолжительность : 11 м. 39 с.
Режим общего битрейта : Переменный
Общий поток : 6676 Кбит/сек
Видео
Идентификатор : 224 (0xE0)
Формат : MPEG Video
Версия формата : Version 2
Профиль формата : Main@Main
Настройки формата : CustomMatrix / BVOP
Параметр BVOP формата : Да
Параметр матрицы формата : Выборочная
Параметр GOP формата : M=3, N=12
Структура изображения : Frame
Продолжительность : 11 м. 39 с.
Вид битрейта : Переменный
Битрейт : 6287 Кбит/сек
Максимальный битрейт : 6556 Кбит/сек
Ширина : 720 пикселей
Высота : 576 пикселей
Соотношение сторон : 4:3
Частота кадров : 25,000 кадров/сек
Стандарт вещания : PAL
Цветовое пространство : YUV
Субдискретизация насыщенности : 4:2:0
Битовая глубина : 8 бит
Тип развёртки : Чересстрочная
Порядок развёртки : Верхнее поле первое
Метод сжатия : С потерями
Бит/(Пиксели*Кадры) : 0.606
Временной код первого кадра : 00:39:26:10
Оригинал временного кода : Group of pictures header
GOP, открыто/закрыто : Открыто
Размер потока : 524 Мбайт (94%)
Аудио
Идентификатор : 189 (0xBD)-128 (0x80)
Формат : AC-3
Формат/Информация : Audio Coding 3
Коммерческое название : Dolby Digital
Режим смешивания : DVD-Video
Продолжительность : 11 м. 39 с.
Вид битрейта : Постоянный
Битрейт : 256 Кбит/сек
Каналы : 2 канала
Channel layout : L R
Частота : 48,0 КГц
Частота кадров : 31,250 кадров/сек (1536 SPF)
Битовая глубина : 16 бит
Метод сжатия : С потерями
Задержка видео : -368 мс.
Размер потока : 21,4 Мбайт (4%)
ServiceKind/String : Complete Main
Меню

Чеченский капкан. 4 серия."Террор" (01:00:57)

Чеченский капкан. 4 серия. Террор
Сценарий: Артем Иутенков
Авторская группа: Игорь Прокопенко, Алексей Перевощиков, Артем Иутенков
Продолжительность: 01:00:57
Меню: Есть, на русском, статичное, неозвученное
Описание:
Почему генерал Геннадий Трошев (он один из героев фильма) сказал, что Хасавюртовское соглашение
«явилось фактически началом второй войны»? На что боевики тратили "мирные годы"? Как мог в центре
Грозного возникнуть невольничий рынок? Кто подбил бандитов на вторжение в Дагестан и с каких
закулисных договоренностей начиналась вторая чеченская война?

Качество: DVD5(Custom)
Формат: DVD-Video
Видеокодек: MPEG2
Аудиокодек: AC3
Видео: PAL 4:3, 25.000 fps, битрейт (средний 6 296 Kbps, максимальный 6 556 Kbps)
Аудио: Russian (Dolby AC3, 2 ch) 256 Kbps 48.0 KHz

DVD-4 скриншоты фильма

DVD-4 скриншоты меню

DVD-4 Сэмпл

Сэмпл

DVD-4 Отчёт DVDinfo

Title: 4 - ТЕРРОР
Size: 2.84 Gb ( 2 973 410,00 KBytes ) - DVD-5
Enabled regions: 1, 2, 3, 4, 5, 6
VTS_01 :
Play Length: 01:00:57
Video: PAL 4:3 (720x576) VBR
Audio:
Not specified (Dolby AC3, 2 ch)
* Menus Information *
VIDEO_TS Menu
Video:
PAL 4:3 (720x576) VBR
Language Unit :
Title Menu
VTS_01 Menu
Video:
NTSC 4:3 (720x480) VBR
Auto Pan&Scan, Auto Letterboxed
Language Unit :
Root Menu

DVD-4 Отчёт MediaInfo

Общее
Полное имя : VIDEO_TS\VIDEO_TS.BUP
Формат : DVD Video
Профиль формата : Menu
Размер файла : 160 Кбайт
Режим общего битрейта : Переменный
FileExtension_Invalid : ifo
Видео
Идентификатор : 224 (0xE0)
Формат : MPEG Video
Версия формата : Version 2
Вид битрейта : Переменный
Ширина : 720 пикселей
Высота : 576 пикселей
Соотношение сторон : 4:3
Частота кадров : 25,000 кадров/сек
Стандарт вещания : PAL
Метод сжатия : С потерями
Текст
Формат : RLE
Формат/Информация : Run-length encoding
Битовая глубина : 2 бит
Общее
Полное имя : VIDEO_TS\VIDEO_TS.IFO
Формат : DVD Video
Профиль формата : Menu
Размер файла : 160 Кбайт
Режим общего битрейта : Переменный
Видео
Идентификатор : 224 (0xE0)
Формат : MPEG Video
Версия формата : Version 2
Вид битрейта : Переменный
Ширина : 720 пикселей
Высота : 576 пикселей
Соотношение сторон : 4:3
Частота кадров : 25,000 кадров/сек
Стандарт вещания : PAL
Метод сжатия : С потерями
Текст
Формат : RLE
Формат/Информация : Run-length encoding
Битовая глубина : 2 бит
Общее
Полное имя : VIDEO_TS\VIDEO_TS.VOB
Формат : MPEG-PS
Размер файла : 40,0 Кбайт
Продолжительность : 40 мс.
Режим общего битрейта : Переменный
Общий поток : 8192 Кбит/сек
Видео
Идентификатор : 224 (0xE0)
Формат : MPEG Video
Версия формата : Version 2
Профиль формата : Main@Main
Параметр BVOP формата : Нет
Параметр матрицы формата : По умолчанию
Продолжительность : 40 мс.
Вид битрейта : Переменный
Максимальный битрейт : 4000 Кбит/сек
Ширина : 720 пикселей
Высота : 576 пикселей
Соотношение сторон : 4:3
Частота кадров : 25,000 кадров/сек
Стандарт вещания : PAL
Цветовое пространство : YUV
Субдискретизация насыщенности : 4:2:0
Битовая глубина : 8 бит
Тип развёртки : Прогрессивная
Порядок развёртки : Верхнее поле первое
Метод сжатия : С потерями
Временной код первого кадра : 00:00:00;00
Оригинал временного кода : Group of pictures header
Текст
Идентификатор : 189 (0xBD)-32 (0x20)
Формат : RLE
Формат/Информация : Run-length encoding
Режим смешивания : DVD-Video
Меню
Общее
Полное имя : VIDEO_TS\VTS_01_0.BUP
Формат : DVD Video
Профиль формата : Program
Размер файла : 96,0 Кбайт
Продолжительность : 1 ч. 0 м.
Режим общего битрейта : Переменный
Общий поток : 215 бит/сек
FileExtension_Invalid : ifo
Видео
Идентификатор : 224 (0xE0)
Формат : MPEG Video
Версия формата : Version 2
Продолжительность : 1 ч. 0 м.
Вид битрейта : Переменный
Ширина : 720 пикселей
Высота : 576 пикселей
Соотношение сторон : 4:3
Частота кадров : 25,000 кадров/сек
Стандарт вещания : PAL
Метод сжатия : С потерями
Аудио
Идентификатор : 128 (0x80)
Формат : AC-3
Формат/Информация : Audio Coding 3
Продолжительность : 1 ч. 0 м.
Каналы : 2 канала
Частота : 48,0 КГц
Метод сжатия : С потерями
Меню
Продолжительность : 1 ч. 0 м.
00:00:00.000 : Chapter 1
00:10:00.480 : Chapter 2
00:20:00.480 : Chapter 3
00:30:00.480 : Chapter 4
00:40:00.480 : Chapter 5
00:50:00.480 : Chapter 6
01:00:00.480 : Chapter 7
List (Audio) : 0
Общее
Полное имя : VIDEO_TS\VTS_01_0.IFO
Формат : DVD Video
Профиль формата : Program
Размер файла : 96,0 Кбайт
Продолжительность : 1 ч. 0 м.
Режим общего битрейта : Переменный
Общий поток : 215 бит/сек
Видео
Идентификатор : 224 (0xE0)
Формат : MPEG Video
Версия формата : Version 2
Продолжительность : 1 ч. 0 м.
Вид битрейта : Переменный
Ширина : 720 пикселей
Высота : 576 пикселей
Соотношение сторон : 4:3
Частота кадров : 25,000 кадров/сек
Стандарт вещания : PAL
Метод сжатия : С потерями
Аудио
Идентификатор : 128 (0x80)
Формат : AC-3
Формат/Информация : Audio Coding 3
Продолжительность : 1 ч. 0 м.
Каналы : 2 канала
Частота : 48,0 КГц
Метод сжатия : С потерями
Меню
Продолжительность : 1 ч. 0 м.
00:00:00.000 : Chapter 1
00:10:00.480 : Chapter 2
00:20:00.480 : Chapter 3
00:30:00.480 : Chapter 4
00:40:00.480 : Chapter 5
00:50:00.480 : Chapter 6
01:00:00.480 : Chapter 7
List (Audio) : 0
Общее
Полное имя : VIDEO_TS\VTS_01_1.VOB
Формат : MPEG-PS
Размер файла : 938 Мбайт
Продолжительность : 19 м. 49 с.
Режим общего битрейта : Переменный
Общий поток : 6613 Кбит/сек
Видео
Идентификатор : 224 (0xE0)
Формат : MPEG Video
Версия формата : Version 2
Профиль формата : Main@Main
Настройки формата : CustomMatrix / BVOP
Параметр BVOP формата : Да
Параметр матрицы формата : Выборочная
Параметр GOP формата : M=3, N=12
Структура изображения : Frame
Продолжительность : 19 м. 49 с.
Вид битрейта : Переменный
Битрейт : 6226 Кбит/сек
Максимальный битрейт : 6556 Кбит/сек
Ширина : 720 пикселей
Высота : 576 пикселей
Соотношение сторон : 4:3
Частота кадров : 25,000 кадров/сек
Стандарт вещания : PAL
Цветовое пространство : YUV
Субдискретизация насыщенности : 4:2:0
Битовая глубина : 8 бит
Тип развёртки : Чересстрочная
Порядок развёртки : Верхнее поле первое
Метод сжатия : С потерями
Бит/(Пиксели*Кадры) : 0.600
Временной код первого кадра : 00:00:00:00
Оригинал временного кода : Group of pictures header
GOP, открыто/закрыто : Открыто
GOP, открыто/закрыто на первом кадре : Закрыто
Размер потока : 883 Мбайт (94%)
Аудио
Идентификатор : 189 (0xBD)-128 (0x80)
Формат : AC-3
Формат/Информация : Audio Coding 3
Коммерческое название : Dolby Digital
Режим смешивания : DVD-Video
Продолжительность : 19 м. 49 с.
Вид битрейта : Постоянный
Битрейт : 256 Кбит/сек
Каналы : 2 канала
Channel layout : L R
Частота : 48,0 КГц
Частота кадров : 31,250 кадров/сек (1536 SPF)
Битовая глубина : 16 бит
Метод сжатия : С потерями
Размер потока : 36,3 Мбайт (4%)
ServiceKind/String : Complete Main
Меню
Общее
Полное имя : VIDEO_TS\VTS_01_2.VOB
Формат : MPEG-PS
Размер файла : 938 Мбайт
Продолжительность : 19 м. 36 с.
Режим общего битрейта : Переменный
Общий поток : 6685 Кбит/сек
Видео
Идентификатор : 224 (0xE0)
Формат : MPEG Video
Версия формата : Version 2
Профиль формата : Main@Main
Настройки формата : CustomMatrix / BVOP
Параметр BVOP формата : Да
Параметр матрицы формата : Выборочная
Параметр GOP формата : M=3, N=12
Структура изображения : Frame
Продолжительность : 19 м. 36 с.
Вид битрейта : Переменный
Битрейт : 6296 Кбит/сек
Максимальный битрейт : 6556 Кбит/сек
Ширина : 720 пикселей
Высота : 576 пикселей
Соотношение сторон : 4:3
Частота кадров : 25,000 кадров/сек
Стандарт вещания : PAL
Цветовое пространство : YUV
Субдискретизация насыщенности : 4:2:0
Битовая глубина : 8 бит
Тип развёртки : Чересстрочная
Порядок развёртки : Верхнее поле первое
Метод сжатия : С потерями
Бит/(Пиксели*Кадры) : 0.607
Временной код первого кадра : 00:19:49:11
Оригинал временного кода : Group of pictures header
GOP, открыто/закрыто : Открыто
Размер потока : 883 Мбайт (94%)
Аудио
Идентификатор : 189 (0xBD)-128 (0x80)
Формат : AC-3
Формат/Информация : Audio Coding 3
Коммерческое название : Dolby Digital
Режим смешивания : DVD-Video
Продолжительность : 19 м. 36 с.
Вид битрейта : Постоянный
Битрейт : 256 Кбит/сек
Каналы : 2 канала
Channel layout : L R
Частота : 48,0 КГц
Частота кадров : 31,250 кадров/сек (1536 SPF)
Битовая глубина : 16 бит
Метод сжатия : С потерями
Задержка видео : -368 мс.
Размер потока : 35,9 Мбайт (4%)
ServiceKind/String : Complete Main
Меню
Общее
Полное имя : VIDEO_TS\VTS_01_3.VOB
Формат : MPEG-PS
Размер файла : 938 Мбайт
Продолжительность : 19 м. 37 с.
Режим общего битрейта : Переменный
Общий поток : 6678 Кбит/сек
Видео
Идентификатор : 224 (0xE0)
Формат : MPEG Video
Версия формата : Version 2
Профиль формата : Main@Main
Настройки формата : CustomMatrix / BVOP
Параметр BVOP формата : Да
Параметр матрицы формата : Выборочная
Параметр GOP формата : M=3, N=12
Структура изображения : Frame
Продолжительность : 19 м. 37 с.
Вид битрейта : Переменный
Битрейт : 6289 Кбит/сек
Максимальный битрейт : 6556 Кбит/сек
Ширина : 720 пикселей
Высота : 576 пикселей
Соотношение сторон : 4:3
Частота кадров : 25,000 кадров/сек
Стандарт вещания : PAL
Цветовое пространство : YUV
Субдискретизация насыщенности : 4:2:0
Битовая глубина : 8 бит
Тип развёртки : Чересстрочная
Порядок развёртки : Верхнее поле первое
Метод сжатия : С потерями
Бит/(Пиксели*Кадры) : 0.607
Временной код первого кадра : 00:39:25:23
Оригинал временного кода : Group of pictures header
GOP, открыто/закрыто : Открыто
Размер потока : 883 Мбайт (94%)
Аудио
Идентификатор : 189 (0xBD)-128 (0x80)
Формат : AC-3
Формат/Информация : Audio Coding 3
Коммерческое название : Dolby Digital
Режим смешивания : DVD-Video
Продолжительность : 19 м. 37 с.
Вид битрейта : Постоянный
Битрейт : 256 Кбит/сек
Каналы : 2 канала
Channel layout : L R
Частота : 48,0 КГц
Частота кадров : 31,250 кадров/сек (1536 SPF)
Битовая глубина : 16 бит
Метод сжатия : С потерями
Задержка видео : -336 мс.
Размер потока : 35,9 Мбайт (4%)
ServiceKind/String : Complete Main
Меню
Общее
Полное имя : VIDEO_TS\VTS_01_4.VOB
Формат : MPEG-PS
Размер файла : 90,2 Мбайт
Продолжительность : 1 м. 53 с.
Режим общего битрейта : Переменный
Общий поток : 6665 Кбит/сек
Видео
Идентификатор : 224 (0xE0)
Формат : MPEG Video
Версия формата : Version 2
Профиль формата : Main@Main
Настройки формата : CustomMatrix / BVOP
Параметр BVOP формата : Да
Параметр матрицы формата : Выборочная
Параметр GOP формата : M=3, N=12
Структура изображения : Frame
Продолжительность : 1 м. 53 с.
Вид битрейта : Переменный
Битрейт : 6276 Кбит/сек
Максимальный битрейт : 6556 Кбит/сек
Ширина : 720 пикселей
Высота : 576 пикселей
Соотношение сторон : 4:3
Частота кадров : 25,000 кадров/сек
Стандарт вещания : PAL
Цветовое пространство : YUV
Субдискретизация насыщенности : 4:2:0
Битовая глубина : 8 бит
Тип развёртки : Чересстрочная
Порядок развёртки : Верхнее поле первое
Метод сжатия : С потерями
Бит/(Пиксели*Кадры) : 0.605
Временной код первого кадра : 00:59:03:21
Оригинал временного кода : Group of pictures header
GOP, открыто/закрыто : Открыто
Размер потока : 84,7 Мбайт (94%)
Аудио
Идентификатор : 189 (0xBD)-128 (0x80)
Формат : AC-3
Формат/Информация : Audio Coding 3
Коммерческое название : Dolby Digital
Режим смешивания : DVD-Video
Продолжительность : 1 м. 53 с.
Вид битрейта : Постоянный
Битрейт : 256 Кбит/сек
Каналы : 2 канала
Channel layout : L R
Частота : 48,0 КГц
Частота кадров : 31,250 кадров/сек (1536 SPF)
Битовая глубина : 16 бит
Метод сжатия : С потерями
Задержка видео : -336 мс.
Размер потока : 3,46 Мбайт (4%)
ServiceKind/String : Complete Main
Меню

Чеченский капкан. 5 серия."От Норд-Оста до Беслана" (00:48:21)

Чеченский капкан. 5 серия. От Норд-Оста до Беслана
Сценарий: Андрей Кузьминов
Авторская группа: Игорь Прокопенко, Алексей Перевощиков, Андрей Кузьминов
Продолжительность: 00:48:21
Меню: Есть, на русском, статичное, неозвученное
Описание:
В июне 2000 года главой администрации чеченской республики становится Ахмад Кадыров, бывший
верховный муфтий Чечни, объявивший джихад России и участвовавший в 1994-96 годах в боевых действиях
против федералов. В чем загадка симпатии Кремля к новому чеченскому лидеру? Кто был заинтересован
в гибели Кадырова в 2004 году? Война в Чечне закончена, считают официальные власти в России.
Террористическая война против России продолжается... Теракт в Каспийске и трагедия «Норд-Оста»,
куда ведут нити террористических заговоров? Планы исламских фундаменталистов и иностранных
спецслужб по созданию исламского халифата на Северном Кавказе... Трагедия Беслана была неизбежна...

Качество: DVD5(Custom)
Формат: DVD-Video
Видеокодек: MPEG2
Аудиокодек: AC3
Видео: PAL 4:3, 25.000 fps, битрейт (средний 6 244 Kbps, максимальный 6 556 Kbps)
Аудио: Russian (Dolby AC3, 2 ch) 256 Kbps 48.0 KHz

DVD-5 скриншоты фильма

DVD-5 скриншоты меню

DVD-5 Сэмпл

Сэмпл

DVD-5 Отчёт DVDinfo

Title: 5- От Норд-Оста до Беслана
Size: 2.25 Gb ( 2 358 350,00 KBytes ) - DVD-5
Enabled regions: 1, 2, 3, 4, 5, 6
VTS_01 :
Play Length: 00:48:20
Video: PAL 4:3 (720x576) VBR
Audio:
Not specified (Dolby AC3, 2 ch)
* Menus Information *
VIDEO_TS Menu
Video:
PAL 4:3 (720x576) VBR
Language Unit :
Title Menu
VTS_01 Menu
Video:
NTSC 4:3 (720x480) VBR
Auto Pan&Scan, Auto Letterboxed
Language Unit :
Root Menu

DVD-5 Отчёт MediaInfo

Общее
Полное имя : VIDEO_TS\VIDEO_TS.BUP
Формат : DVD Video
Профиль формата : Menu
Размер файла : 160 Кбайт
Режим общего битрейта : Переменный
FileExtension_Invalid : ifo
Видео
Идентификатор : 224 (0xE0)
Формат : MPEG Video
Версия формата : Version 2
Вид битрейта : Переменный
Ширина : 720 пикселей
Высота : 576 пикселей
Соотношение сторон : 4:3
Частота кадров : 25,000 кадров/сек
Стандарт вещания : PAL
Метод сжатия : С потерями
Текст
Формат : RLE
Формат/Информация : Run-length encoding
Битовая глубина : 2 бит
Общее
Полное имя : VIDEO_TS\VIDEO_TS.IFO
Формат : DVD Video
Профиль формата : Menu
Размер файла : 160 Кбайт
Режим общего битрейта : Переменный
Видео
Идентификатор : 224 (0xE0)
Формат : MPEG Video
Версия формата : Version 2
Вид битрейта : Переменный
Ширина : 720 пикселей
Высота : 576 пикселей
Соотношение сторон : 4:3
Частота кадров : 25,000 кадров/сек
Стандарт вещания : PAL
Метод сжатия : С потерями
Текст
Формат : RLE
Формат/Информация : Run-length encoding
Битовая глубина : 2 бит
Общее
Полное имя : VIDEO_TS\VIDEO_TS.VOB
Формат : MPEG-PS
Размер файла : 44,0 Кбайт
Продолжительность : 40 мс.
Режим общего битрейта : Переменный
Общий поток : 9011 Кбит/сек
Видео
Идентификатор : 224 (0xE0)
Формат : MPEG Video
Версия формата : Version 2
Профиль формата : Main@Main
Параметр BVOP формата : Нет
Параметр матрицы формата : По умолчанию
Продолжительность : 40 мс.
Вид битрейта : Переменный
Максимальный битрейт : 4000 Кбит/сек
Ширина : 720 пикселей
Высота : 576 пикселей
Соотношение сторон : 4:3
Частота кадров : 25,000 кадров/сек
Стандарт вещания : PAL
Цветовое пространство : YUV
Субдискретизация насыщенности : 4:2:0
Битовая глубина : 8 бит
Тип развёртки : Прогрессивная
Порядок развёртки : Верхнее поле первое
Метод сжатия : С потерями
Временной код первого кадра : 00:00:00;00
Оригинал временного кода : Group of pictures header
Текст
Идентификатор : 189 (0xBD)-32 (0x20)
Формат : RLE
Формат/Информация : Run-length encoding
Режим смешивания : DVD-Video
Меню
Общее
Полное имя : VIDEO_TS\VTS_01_0.BUP
Формат : DVD Video
Профиль формата : Program
Размер файла : 96,0 Кбайт
Продолжительность : 48 м. 20 с.
Режим общего битрейта : Переменный
Общий поток : 271 бит/сек
FileExtension_Invalid : ifo
Видео
Идентификатор : 224 (0xE0)
Формат : MPEG Video
Версия формата : Version 2
Продолжительность : 48 м. 20 с.
Вид битрейта : Переменный
Ширина : 720 пикселей
Высота : 576 пикселей
Соотношение сторон : 4:3
Частота кадров : 25,000 кадров/сек
Стандарт вещания : PAL
Метод сжатия : С потерями
Аудио
Идентификатор : 128 (0x80)
Формат : AC-3
Формат/Информация : Audio Coding 3
Продолжительность : 48 м. 20 с.
Каналы : 2 канала
Частота : 48,0 КГц
Метод сжатия : С потерями
Меню
Продолжительность : 48 м. 20 с.
00:00:00.000 : Chapter 1
00:10:00.480 : Chapter 2
00:20:00.480 : Chapter 3
00:30:00.480 : Chapter 4
00:40:00.480 : Chapter 5
List (Audio) : 0
Общее
Полное имя : VIDEO_TS\VTS_01_0.IFO
Формат : DVD Video
Профиль формата : Program
Размер файла : 96,0 Кбайт
Продолжительность : 48 м. 20 с.
Режим общего битрейта : Переменный
Общий поток : 271 бит/сек
Видео
Идентификатор : 224 (0xE0)
Формат : MPEG Video
Версия формата : Version 2
Продолжительность : 48 м. 20 с.
Вид битрейта : Переменный
Ширина : 720 пикселей
Высота : 576 пикселей
Соотношение сторон : 4:3
Частота кадров : 25,000 кадров/сек
Стандарт вещания : PAL
Метод сжатия : С потерями
Аудио
Идентификатор : 128 (0x80)
Формат : AC-3
Формат/Информация : Audio Coding 3
Продолжительность : 48 м. 20 с.
Каналы : 2 канала
Частота : 48,0 КГц
Метод сжатия : С потерями
Меню
Продолжительность : 48 м. 20 с.
00:00:00.000 : Chapter 1
00:10:00.480 : Chapter 2
00:20:00.480 : Chapter 3
00:30:00.480 : Chapter 4
00:40:00.480 : Chapter 5
List (Audio) : 0
Общее
Полное имя : VIDEO_TS\VTS_01_1.VOB
Формат : MPEG-PS
Размер файла : 938 Мбайт
Продолжительность : 19 м. 46 с.
Режим общего битрейта : Переменный
Общий поток : 6632 Кбит/сек
Видео
Идентификатор : 224 (0xE0)
Формат : MPEG Video
Версия формата : Version 2
Профиль формата : Main@Main
Настройки формата : CustomMatrix / BVOP
Параметр BVOP формата : Да
Параметр матрицы формата : Выборочная
Параметр GOP формата : M=3, N=12
Структура изображения : Frame
Продолжительность : 19 м. 46 с.
Вид битрейта : Переменный
Битрейт : 6244 Кбит/сек
Максимальный битрейт : 6556 Кбит/сек
Ширина : 720 пикселей
Высота : 576 пикселей
Соотношение сторон : 4:3
Частота кадров : 25,000 кадров/сек
Стандарт вещания : PAL
Цветовое пространство : YUV
Субдискретизация насыщенности : 4:2:0
Битовая глубина : 8 бит
Тип развёртки : Чересстрочная
Порядок развёртки : Верхнее поле первое
Метод сжатия : С потерями
Бит/(Пиксели*Кадры) : 0.602
Временной код первого кадра : 00:00:00:00
Оригинал временного кода : Group of pictures header
GOP, открыто/закрыто : Открыто
GOP, открыто/закрыто на первом кадре : Закрыто
Размер потока : 883 Мбайт (94%)
Аудио
Идентификатор : 189 (0xBD)-128 (0x80)
Формат : AC-3
Формат/Информация : Audio Coding 3
Коммерческое название : Dolby Digital
Режим смешивания : DVD-Video
Продолжительность : 19 м. 45 с.
Вид битрейта : Постоянный
Битрейт : 256 Кбит/сек
Каналы : 2 канала
Channel layout : L R
Частота : 48,0 КГц
Частота кадров : 31,250 кадров/сек (1536 SPF)
Битовая глубина : 16 бит
Метод сжатия : С потерями
Размер потока : 36,2 Мбайт (4%)
ServiceKind/String : Complete Main
Меню
Общее
Полное имя : VIDEO_TS\VTS_01_2.VOB
Формат : MPEG-PS
Размер файла : 938 Мбайт
Продолжительность : 19 м. 40 с.
Режим общего битрейта : Переменный
Общий поток : 6663 Кбит/сек
Видео
Идентификатор : 224 (0xE0)
Формат : MPEG Video
Версия формата : Version 2
Профиль формата : Main@Main
Настройки формата : CustomMatrix / BVOP
Параметр BVOP формата : Да
Параметр матрицы формата : Выборочная
Параметр GOP формата : M=3, N=12
Структура изображения : Frame
Продолжительность : 19 м. 40 с.
Вид битрейта : Переменный
Битрейт : 6274 Кбит/сек
Максимальный битрейт : 6556 Кбит/сек
Ширина : 720 пикселей
Высота : 576 пикселей
Соотношение сторон : 4:3
Частота кадров : 25,000 кадров/сек
Стандарт вещания : PAL
Цветовое пространство : YUV
Субдискретизация насыщенности : 4:2:0
Битовая глубина : 8 бит
Тип развёртки : Чересстрочная
Порядок развёртки : Верхнее поле первое
Метод сжатия : С потерями
Бит/(Пиксели*Кадры) : 0.605
Временной код первого кадра : 00:19:46:02
Оригинал временного кода : Group of pictures header
GOP, открыто/закрыто : Открыто
Размер потока : 883 Мбайт (94%)
Аудио
Идентификатор : 189 (0xBD)-128 (0x80)
Формат : AC-3
Формат/Информация : Audio Coding 3
Коммерческое название : Dolby Digital
Режим смешивания : DVD-Video
Продолжительность : 19 м. 40 с.
Вид битрейта : Постоянный
Битрейт : 256 Кбит/сек
Каналы : 2 канала
Channel layout : L R
Частота : 48,0 КГц
Частота кадров : 31,250 кадров/сек (1536 SPF)
Битовая глубина : 16 бит
Метод сжатия : С потерями
Задержка видео : -368 мс.
Размер потока : 36,0 Мбайт (4%)
ServiceKind/String : Complete Main
Меню
Общее
Полное имя : VIDEO_TS\VTS_01_3.VOB
Формат : MPEG-PS
Размер файла : 427 Мбайт
Продолжительность : 8 м. 54 с.
Режим общего битрейта : Переменный
Общий поток : 6706 Кбит/сек
Видео
Идентификатор : 224 (0xE0)
Формат : MPEG Video
Версия формата : Version 2
Профиль формата : Main@Main
Настройки формата : CustomMatrix / BVOP
Параметр BVOP формата : Да
Параметр матрицы формата : Выборочная
Параметр GOP формата : M=3, N=12
Структура изображения : Frame
Продолжительность : 8 м. 54 с.
Вид битрейта : Переменный
Битрейт : 6317 Кбит/сек
Максимальный битрейт : 6556 Кбит/сек
Ширина : 720 пикселей
Высота : 576 пикселей
Соотношение сторон : 4:3
Частота кадров : 25,000 кадров/сек
Стандарт вещания : PAL
Цветовое пространство : YUV
Субдискретизация насыщенности : 4:2:0
Битовая глубина : 8 бит
Тип развёртки : Чересстрочная
Порядок развёртки : Верхнее поле первое
Метод сжатия : С потерями
Бит/(Пиксели*Кадры) : 0.609
Временной код первого кадра : 00:39:26:10
Оригинал временного кода : Group of pictures header
GOP, открыто/закрыто : Открыто
Размер потока : 402 Мбайт (94%)
Аудио
Идентификатор : 189 (0xBD)-128 (0x80)
Формат : AC-3
Формат/Информация : Audio Coding 3
Коммерческое название : Dolby Digital
Режим смешивания : DVD-Video
Продолжительность : 8 м. 54 с.
Вид битрейта : Постоянный
Битрейт : 256 Кбит/сек
Каналы : 2 канала
Channel layout : L R
Частота : 48,0 КГц
Частота кадров : 31,250 кадров/сек (1536 SPF)
Битовая глубина : 16 бит
Метод сжатия : С потерями
Задержка видео : -304 мс.
Размер потока : 16,3 Мбайт (4%)
ServiceKind/String : Complete Main
Меню
Качество: DVD5(Custom)
Формат: DVD-Video
Видеокодек: MPEG2
Аудиокодек: AC3
Видео: PAL 4:3, 25.000 fps, битрейт (средний 6 225 Kbps, максимальный 6 556 Kbps)
Аудио: Russian (Dolby AC3, 2 ch) 256 Kbps 48.0 KHz

Дополнительная информация по релизу

Исходник - Digital Betacam. Собран при помощи Avid Media Composer.
[Profile]  [PM] 
Display posts:    
Reply to topic

Current time is: 18-Jan 16:29

All times are UTC + 2



You cannot post new topics in this forum
You cannot reply to topics in this forum
You cannot edit your posts in this forum
You cannot delete your posts in this forum
You cannot vote in polls in this forum
You cannot attach files in this forum
You cannot download files in this forum