Сокровище / Comoara (Корнелиу Порумбою / Corneliu Porumboiu) [2015, Румыния, комедия, BDRip 720p] Sub Rus, Eng +Original Rom

Reply to topic
 
Author
Message

Faust ®

Gender: Unknown

Longevity: 7 years 11 months

Posts: 13090

Reputation: 0 [+] [-]

Faust · Post 15-May-2019 06:35

[Quote] 

Сокровище / Comoara
Страна: Румыния, Франция
Студия: 42 km Film
Жанр: комедия
Год выпуска: 2015
Продолжительность: 1:28:56
Перевод: Субтитры
Субтитры: русские, английские
Оригинальная аудиодорожка: румынский
Режиссер: Корнелиу Порумбою / Corneliu Porumboiu
В ролях: Тома Кузин, Адриан Пуркареску, Корнелиу Козмей, Раду Банзару, Дан Кириак, Юлия Чокинэ, Мариус Коанда, Флорин Кеворкян, Лауренциу Лазэр, Чиприан Мистряну, Ана Мария Стегару, Кристина Тома, Никодим Тома, Клеменче Валлетяу
Описание: Действие происходит в Бухаресте. Кости, молодой и счастливый отец семейства, любит по вечерам читать своему шестилетнему сыну приключения Робин Гуда. Однажды сосед по секрету рассказывает ему, что в саду его бабушки и дедушки зарыт клад.
Сэмпл: http://sendfile.su/1480663
Тип релиза: BDRip 720p
Контейнер: MKV
Видео: AVC, 1280x532p (2.40:1), 24.0 fps, 3930 kbps
Аудио: AC3, 48 kHz, 16 bit, 384 kbps
Формат субтитров: softsub (SRT)

MediaInfo

ОбщееУникальный идентификатор                 : 177146422790128281814194814726714442294 (0x854528F705ABEF1BBCBA1513C46C4236)Формат                                   : MatroskaВерсия формата                           : Version 4Размер файла                             : 2,68 ГбайтПродолжительность                        : 1 ч. 28 м.Общий поток                              : 4316 Кбит/секДата кодирования                         : UTC 2016-03-21 04:17:57Программа кодирования                    : mkvmerge v7.8.0 ('River Man') 32bit built on Mar 27 2015 16:18:02Библиотека кодирования                   : libebml v1.3.1 + libmatroska v1.4.2
ВидеоИдентификатор : 3Формат : AVCФормат/Информация : Advanced Video CodecПрофиль формата : Main@L3.1Настройки формата : 2 Ref FramesПараметр CABAC формата : НетПараметр RefFrames формата : 2 кадраИдентификатор кодека : V_MPEG4/ISO/AVCПродолжительность : 1 ч. 28 м.Битрейт : 3930 Кбит/секШирина : 1280 пикселейВысота : 532 пикселяСоотношение сторон : 2,40:1Режим частоты кадров : ПостоянныйЧастота кадров : 24,000 кадра/секЦветовое пространство : YUVСубдискретизация насыщенности : 4:2:0Битовая глубина : 8 битТип развёртки : ПрогрессивнаяБит/(Пиксели*Кадры) : 0.240Размер потока : 2,44 Гбайт (91%)Язык : EnglishDefault : ДаForced : НетЦветовой диапазон : LimitedОсновные цвета : BT.709Характеристики трансфера : BT.709Коэффициенты матрицы : BT.709
АудиоИдентификатор : 4Формат : AC-3Формат/Информация : Audio Coding 3Коммерческое название : Dolby DigitalИдентификатор кодека : A_AC3Продолжительность : 1 ч. 28 м.Вид битрейта : ПостоянныйБитрейт : 384 Кбит/секКаналы : 6 каналовChannel layout : L R C LFE Ls RsЧастота : 48,0 КГцЧастота кадров : 31,250 кадров/сек (1536 SPF)Битовая глубина : 16 битМетод сжатия : С потерямиРазмер потока : 244 Мбайт (9%)Язык : RomanianServiceKind/String : Complete MainDefault : ДаForced : Нет
Текст #1Идентификатор : 1Формат : UTF-8Идентификатор кодека : S_TEXT/UTF8Идентификатор кодека/Информация : UTF-8 Plain TextПродолжительность : 1 ч. 24 м.Битрейт : 55 бит/секElementCount : 901Размер потока : 34,3 Кбайт (0%)Язык : EnglishDefault : ДаForced : Нет
Текст #2Идентификатор : 2Формат : UTF-8Идентификатор кодека : S_TEXT/UTF8Идентификатор кодека/Информация : UTF-8 Plain TextПродолжительность : 1 ч. 24 м.Битрейт : 87 бит/секElementCount : 900Размер потока : 54,0 Кбайт (0%)Язык : RussianDefault : НетForced : Нет

Скриншоты

[Profile]  [PM] 
Display posts:    
Reply to topic

Current time is: 19-Aug 14:51

All times are UTC + 2



You cannot post new topics in this forum
You cannot reply to topics in this forum
You cannot edit your posts in this forum
You cannot delete your posts in this forum
You cannot vote in polls in this forum
You cannot attach files in this forum
You cannot download files in this forum