Гостья из космоса / Чужой пришелец / Alien Intruder (Рикардо Жак Гэйл / Ricardo Jacques Gale) [1993, США, фантастика, триллер, киберпанк, DVDRip-AVC] AVO (Андрей Дольский) + Sub Rus + Original Eng

Reply to topic
 
Author
Message

Satyr ®

Online

Gender: Unknown

Longevity: 10 years

Posts: 13095

Reputation: 54 [+] [-]

Satyr · Post 15-May-2019 14:45

[Quote] 

Гостья из космоса / Чужой пришелец / Alien Intruder
Страна: США
Жанр: фантастика, триллер, киберпанк
Год выпуска: 1993
Продолжительность: 01:30:24
Перевод: Авторский (одноголосый закадровый) Андрей Дольский
Субтитры: русские
Оригинальная аудиодорожка: английский
Режиссер: Рикардо Жак Гэйл / Ricardo Jacques Gale
В ролях: Максвелл Колфилд (Maxwell Caulfield), Трэйси Скоггинс (Tracy Scoggins), Билли Ди Уильямс (Billy Dee Williams), Гари Робертс (Gary Roberts), Ричард Коуди (Richard Cody), Стивен Дэвис (Stephen Davies), Джефф Конэвей (Jeff Conaway), Майкл ДеЛано (Michael DeLano), Чарльз Янг (Charles Young)
Описание: 2022 год. Околдованный красотой космической дивы, лейтенант Бормэн перестрелял весь экипаж звездолета. Четверо зэков, приговоренных на Земле к пожизненному заключению, посылаются для расследования этой трагедии.
Доп. информация:
Большое спасибо:
Cinemageddon - Немецкий DVD-R исходник
Lenape - Русская звуковая дорожка, русские субтитры

Сэмпл: http://multi-up.com/1232124
Качество видео: DVDRip-AVC
Формат видео: MKV
Видео: 700x576 (746x576 anamorphic, 4:3), 25 fps, x264 core 157, ~2,928 kbps, 8 bit, 0.290 bit/pixel
Аудио: Russian, 48.0 KHz, AC3, 2 ch, 192 Kbps
Аудио 2: English, 48.0 KHz, AC3, 2 ch, 256 Kbps
Формат субтитров: softsub (SRT)

MediaInfo

GeneralUnique ID                                : 137592634420741198292845729052132949066 (0x678360A24115812CD9E2DA9ED36CBC4A)Complete name                            : Alien.Intruder.1993.576p.DVDRip.x264.Rus.Eng-TMNEMONIC.mkvFormat                                   : MatroskaFormat version                           : Version 4File size                                : 2.13 GiBDuration                                 : 1 h 30 minOverall bit rate                         : 3 378 kb/sMovie name                               : Alien Intruder (1993)Encoded date                             : UTC 2019-05-14 21:40:04Writing application                      : mkvmerge v33.1.0 ('Primrose') 64-bitWriting library                          : libebml v1.3.7 + libmatroska v1.5.0
VideoID : 1Format : AVCFormat/Info : Advanced Video CodecFormat profile : High@L4.1Format settings : CABAC / 16 Ref FramesFormat settings, CABAC : YesFormat settings, Reference frames : 16 framesCodec ID : V_MPEG4/ISO/AVCDuration : 1 h 30 minBit rate : 2 928 kb/sWidth : 700 pixelsHeight : 576 pixelsDisplay aspect ratio : 1.296Frame rate mode : ConstantFrame rate : 25.000 FPSColor space : YUVChroma subsampling : 4:2:0Bit depth : 8 bitsScan type : ProgressiveBits/(Pixel*Frame) : 0.290Stream size : 1.85 GiB (87%)Title : [TMNEMONIC]Writing library : x264 core 157 r2935 545de2fEncoding settings : cabac=1 / ref=16 / deblock=1:-1:-1 / analyse=0x3:0x133 / me=umh / subme=10 / psy=1 / psy_rd=1.00:0.15 / mixed_ref=1 / me_range=24 / chroma_me=1 / trellis=2 / 8x8dct=1 / cqm=0 / deadzone=21,11 / fast_pskip=1 / chroma_qp_offset=-3 / threads=18 / lookahead_threads=3 / sliced_threads=0 / nr=0 / decimate=1 / interlaced=0 / bluray_compat=0 / constrained_intra=0 / bframes=8 / b_pyramid=2 / b_adapt=2 / b_bias=0 / direct=3 / weightb=1 / open_gop=0 / weightp=2 / keyint=250 / keyint_min=25 / scenecut=40 / intra_refresh=0 / rc_lookahead=60 / rc=crf / mbtree=1 / crf=17.5 / qcomp=0.60 / qpmin=0 / qpmax=69 / qpstep=4 / vbv_maxrate=62500 / vbv_bufsize=78125 / crf_max=0.0 / nal_hrd=none / filler=0 / ip_ratio=1.40 / aq=1:1.00Default : YesForced : NoColor range : LimitedColor primaries : BT.601 PALTransfer characteristics : BT.709Matrix coefficients : BT.601
Audio #1ID : 2Format : AC-3Format/Info : Audio Coding 3Commercial name : Dolby DigitalCodec ID : A_AC3Duration : 1 h 30 minBit rate mode : ConstantBit rate : 192 kb/sChannel(s) : 2 channelsChannel layout : L RSampling rate : 48.0 kHzFrame rate : 31.250 FPS (1536 SPF)Bit depth : 16 bitsCompression mode : LossyStream size : 124 MiB (6%)Title : [2.0][Андрей Дольский]Language : RussianService kind : Complete MainDefault : YesForced : No
Audio #2ID : 3Format : AC-3Format/Info : Audio Coding 3Commercial name : Dolby DigitalCodec ID : A_AC3Duration : 1 h 30 minBit rate mode : ConstantBit rate : 256 kb/sChannel(s) : 2 channelsChannel layout : L RSampling rate : 48.0 kHzFrame rate : 31.250 FPS (1536 SPF)Bit depth : 16 bitsCompression mode : LossyStream size : 166 MiB (8%)Title : [2.0]Language : EnglishService kind : Complete MainDefault : NoForced : No
TextID : 4Format : UTF-8Codec ID : S_TEXT/UTF8Codec ID/Info : UTF-8 Plain TextDuration : 1 h 26 minBit rate : 55 b/sCount of elements : 592Stream size : 35.2 KiB (0%)Language : RussianDefault : NoForced : No
Menu00:00:00.000 : :Chapter 100:17:11.160 : :Chapter 200:29:25.400 : :Chapter 300:45:01.920 : :Chapter 400:57:14.600 : :Chapter 501:16:00.920 : :Chapter 6

Скриншот c названием фильма

[Profile]  [PM] 
Display posts:    
Reply to topic

Current time is: 21-May 00:22

All times are UTC + 2



You cannot post new topics in this forum
You cannot reply to topics in this forum
You cannot edit your posts in this forum
You cannot delete your posts in this forum
You cannot vote in polls in this forum
You cannot attach files in this forum
You cannot download files in this forum