Часы посещения / Visiting Hours (Жан-Клод Лорд / Jean-Claude Lord) [1982, Канада, ужасы, триллер, VHSRip] [Full Screen] AVO (Алексей Михалев)

Reply to topic
 
Author
Message

Satyr ®

Gender: Unknown

Longevity: 10 years

Posts: 13741

Reputation: 54 [+] [-]

Satyr · Post 14-Aug-2019 01:00

[Quote] 

Часы посещения / Visiting Hours
[Full Screen]
«There is no known cure.....for MURDER»
Страна: Канада
Жанр: ужасы, триллер
Год выпуска: 1982
Продолжительность: 01:38:17
Перевод: Авторский (одноголосый закадровый) Алексей Михалев
Субтитры: нет
Режиссер: Жан-Клод Лорд / Jean-Claude Lord
В ролях: Майкл Айронсайд, Ли Грант, Линда Перл, Уильям Шетнер, Ленор Занн, Гарри Аткин, Хелен Хьюз, Майкл Дж. Рейнольдс, Керстен Бишоп, Дебора Киршенбаум
Описание: Телевизионная ведущая оказывается в центре внимания психически неуравновешенного маньяка. Ее смелые и нетрадиционные высказывания о феминизме, неграх, войне во Вьетнаме, евреях вызывают у него чувство досады и разочарования. Он преследует ее до самого дома, после чего проникает внутрь и нападает на женщину. Той чудом удается избежать смерти, но при этом журналистка получает серьезные повреждения. Она оказывается в госпитале. Но оказывается, что ее кошмары только начинаются, так как маньяк собирается завершить начатое дело и убить журналистку…
Доп. информация: Оцифровка VHS (личный архив) и получение VHSRip alenavova
Эксклюзив для torrentsland.com.ua. При размещении данного релиза на других сайтах ссылка на автора alenavova обязательна

Релиз
Сэмпл: https://yadi.sk/i/cfJFUY5g3SE767
Качество видео: VHSRip
Формат видео: AVI
Видео: 704x544 (1.29:1), 25 fps, XviD build 73 ~1926 kbps avg, 0.20 bit/pixel
Аудио: 48 kHz, AC3 Dolby Digital, 2/0 (L,R) ch, ~192 kbps

MediaInfo

Часы посещения - Visiting Hours (by alenavova).aviFormat                      : AVIFormat/Info                 : Audio Video InterleaveFile size                   : 1.46 GiBDuration                    : 1 h 38 minOverall bit rate            : 2 129 kb/sMovie name                  : Часы посещения - Visiting Hours (by alenavova)Director                    : by alenavovaWriting application         : VirtualDubMod 1.5.10.3 | www.virtualdub-fr.org || (build 2550/release)Copyright                   : Edich2Comment                     : torrentsland.com.ua
VideoID : 0Format : MPEG-4 VisualFormat profile : Advanced Simple@L5Format settings, BVOP : 2Format settings, QPel : NoFormat settings, GMC : No warppointsFormat settings, Matrix : CustomCodec ID : XVIDCodec ID/Hint : XviDDuration : 1 h 38 minBit rate : 1 927 kb/sWidth : 704 pixelsHeight : 544 pixelsDisplay aspect ratio : 1.294Frame rate : 25.000 FPSColor space : YUVChroma subsampling : 4:2:0Bit depth : 8 bitsScan type : ProgressiveCompression mode : LossyBits/(Pixel*Frame) : 0.201Stream size : 1.32 GiB (91%)Writing library : XviD 73
AudioID : 1Format : AC-3Format/Info : Audio Coding 3Format settings, Endianness : BigCodec ID : 2000Duration : 1 h 38 minBit rate mode : ConstantBit rate : 192 kb/sChannel(s) : 2 channelsChannel positions : Front: L RSampling rate : 48.0 kHzFrame rate : 31.250 FPS (1536 spf)Bit depth : 16 bitsCompression mode : LossyStream size : 135 MiB (9%)Alignment : Split accross interleavesInterleave, duration : 40 ms (1.00 video frame)Interleave, preload duratio : 500 msService kind : Complete Main

Скриншоты


[Profile]  [PM] 
Display posts:    
Reply to topic

Current time is: 19-Aug 13:57

All times are UTC + 2



You cannot post new topics in this forum
You cannot reply to topics in this forum
You cannot edit your posts in this forum
You cannot delete your posts in this forum
You cannot vote in polls in this forum
You cannot attach files in this forum
You cannot download files in this forum