Курск / Kursk (Томас Винтерберг / Thomas Vinterberg) [2018, Бельгия, Люксембург, триллер, драма, история, BDRemux 1080p] Dub (iTunes) + MVO (HDRezka Studio) + Sub (Rus, Eng) + 2 Original Eng

Reply to topic
 
Author
Message

Faust ®

Gender: Unknown

Longevity: 7 years 11 months

Posts: 13090

Reputation: 0 [+] [-]

Faust · Post 14-Aug-2019 01:00

[Quote] 

Курск / Kursk- Страна: Бельгия, Люксембург
Студия: Belga Productions, VIA EST
Жанр: Триллер, драма, история
Продолжительность: 01:57:37
Год выпуска: 2018
Перевод: Профессиональный (полное дублирование) | iTunes |
Перевод №2: Любительский (многоголосый, закадровый) | HDRezka Studio |
Русские субтитры: Русские (Forced, Full), Английские
Оригинальные аудиодорожки: Английские (2)
Навигация по главам: Есть-Режиссёр: Томас Винтерберг / Thomas Vinterberg-В ролях: Леа Сейду, Колин Фёрт, Маттиас Шонартс, Микаэл Нюквист, Макс фон Сюдов, Аугуст Диль, Стивен Вэддингтон, Маттиас Швайгхефер, Пернилла Аугуст, Златко Бурич-Описание: Фильм о событиях 2000 года, связанных с подлодкой «Курск». Вся правда о мужестве и стойкости российских подводников, о разногласиях и взаимопомощи, конфликтах и единении, о преданности и любви.-Возраст: 16+ (зрителям, достигшим 16 лет)
Рейтинг MPAA: PG-13 (детям до 13 лет просмотр нежелателен)
Дата мировой премьеры: 6 сентября 2018
Дата российской премьеры: 27 июня 2019, «Экспонента»- -Качество: BDRemux 1080p
Формат: MKV
Видео: MPEG-4 AVC, 1920x1080, ~27 Mbps, 24 fps
Аудио №1: 48 kHz, AC3 Dolby Digital, 6 ch, 384 Kbps | RUS | iTunes |
Аудио №2: 48 kHz, AC3 Dolby Digital, 2 ch, 192 Kbps | RUS | HDRezka Studio |
Аудио №3: 48 kHz, DTS-HD Master Audio, 5.1, 6 ch, 1509 Kbps | Оригинал | ENG |
Аудио №4: 48 kHz, DTS-HD Master Audio, 7.1, 8 ch, 4488 kbps | Оригинал | ENG |
-

MediaInfo

ОбщееУникальный идентификатор                 : 224160321107886665299261223659294212759 (0xA8A3B51D2E49122DAF7B1736F894C297)Полное имя                               : C:\Users\Desktop\Kursk.2018.1080p.BluRay.REMUX.AVC.1080p_by_Stryker76.mkvФормат                                   : MatroskaВерсия формата                           : Version 4Размер файла                             : 27,6 ГбайтПродолжительность                        : 1 ч. 57 м.Режим общего битрейта                    : ПеременныйОбщий поток                              : 33,6 Мбит/секНазвание фильма                          : Kursk.2018.1080p.BluRay.REMUX.AVC.1080pДата кодирования                         : UTC 2019-08-09 14:16:00Программа кодирования                    : mkvmerge v8.2.0 ('World of Adventure') 64bitБиблиотека кодирования                   : libebml v1.3.1 + libmatroska v1.4.2Обложка                                  : YesAttachments                              : Cover - Kursk.png / Kursk.jpg
ВидеоИдентификатор : 1Формат : AVCФормат/Информация : Advanced Video CodecПрофиль формата : High@L4.1Настройки формата : CABAC / 4 Ref FramesПараметр CABAC формата : ДаПараметр RefFrames формата : 4 кадраПараметр GOP формата : M=4, N=24Идентификатор кодека : V_MPEG4/ISO/AVCПродолжительность : 1 ч. 57 м.Вид битрейта : ПеременныйБитрейт : 27,0 Мбит/секМаксимальный битрейт : 31,0 Мбит/секШирина : 1920 пикселейВысота : 1080 пикселейСоотношение сторон : 16:9Режим частоты кадров : ПостоянныйЧастота кадров : 24,000 кадра/секЦветовое пространство : YUVСубдискретизация насыщенности : 4:2:0Битовая глубина : 8 битТип развёртки : ПрогрессивнаяБит/(Пиксели*Кадры) : 0.543Размер потока : 22,2 Гбайт (80%)Заголовок : Kursk.2018.1080p.BluRay.REMUX.AVC.DTS-HD.MA.7.1-FGTЯзык : EnglishDefault : НетForced : НетЦветовой диапазон : LimitedОсновные цвета : BT.709Характеристики трансфера : BT.709Коэффициенты матрицы : BT.709
Аудио #1Идентификатор : 2Формат : AC-3Формат/Информация : Audio Coding 3Коммерческое название : Dolby DigitalИдентификатор кодека : A_AC3Продолжительность : 1 ч. 57 м.Вид битрейта : ПостоянныйБитрейт : 384 Кбит/секКаналы : 6 каналовChannelLayout : L R C LFE Ls RsЧастота : 48,0 КГцЧастота кадров : 31,250 кадров/сек (1536 SPF)Битовая глубина : 16 битМетод сжатия : С потерямиРазмер потока : 323 Мбайт (1%)Заголовок : DUB [iTunes]Язык : RussianServiceKind/String : Complete MainDefault : ДаForced : Нет
Аудио #2Идентификатор : 3Формат : AC-3Формат/Информация : Audio Coding 3Коммерческое название : Dolby DigitalИдентификатор кодека : A_AC3Продолжительность : 1 ч. 57 м.Вид битрейта : ПостоянныйБитрейт : 192 Кбит/секКаналы : 2 каналаChannelLayout : L RЧастота : 48,0 КГцЧастота кадров : 31,250 кадров/сек (1536 SPF)Битовая глубина : 16 битМетод сжатия : С потерямиРазмер потока : 161 Мбайт (1%)Заголовок : MVO [HDRezka Studio]Язык : RussianServiceKind/String : Complete MainDefault : НетForced : Нет
Аудио #3Идентификатор : 4Формат : DTSФормат/Информация : Digital Theater SystemsИдентификатор кодека : A_DTSПродолжительность : 1 ч. 57 м.Вид битрейта : ПостоянныйБитрейт : 1509 Кбит/секКаналы : 6 каналовChannelLayout : C L R Ls Rs LFEЧастота : 48,0 КГцЧастота кадров : 93,750 кадра/сек (512 SPF)Битовая глубина : 24 битМетод сжатия : С потерямиРазмер потока : 1,24 Гбайт (4%)Заголовок : Original ENG [DTS-HD Master Audio]Язык : EnglishDefault : НетForced : Нет
Аудио #4Идентификатор : 5Формат : DTS XLLФормат/Информация : Digital Theater SystemsКоммерческое название : DTS-HD Master AudioИдентификатор кодека : A_DTSПродолжительность : 1 ч. 57 м.Вид битрейта : ПеременныйБитрейт : 4488 Кбит/секКаналы : 8 каналовChannelLayout : C L R LFE Lb Rb Lss RssЧастота : 48,0 КГцЧастота кадров : 93,750 кадра/сек (512 SPF)Битовая глубина : 24 битМетод сжатия : Без потерьРазмер потока : 3,69 Гбайт (13%)Заголовок : Original ENG [DTS-HD Master Audio]Язык : EnglishDefault : НетForced : Нет
Текст #1Идентификатор : 6Формат : UTF-8Идентификатор кодека : S_TEXT/UTF8Идентификатор кодека/Информация : UTF-8 Plain TextПродолжительность : 9 с. 0 мс.Битрейт : 90 бит/секElementCount : 1Размер потока : 102 байт (0%)Заголовок : ForcedЯзык : RussianDefault : ДаForced : Нет
Текст #2Идентификатор : 7Формат : UTF-8Идентификатор кодека : S_TEXT/UTF8Идентификатор кодека/Информация : UTF-8 Plain TextПродолжительность : 1 ч. 48 м.Битрейт : 70 бит/секElementCount : 1076Размер потока : 56,2 Кбайт (0%)Заголовок : FullЯзык : RussianDefault : НетForced : Нет
Текст #3Идентификатор : 8Формат : UTF-8Идентификатор кодека : S_TEXT/UTF8Идентификатор кодека/Информация : UTF-8 Plain TextПродолжительность : 1 ч. 48 м.Битрейт : 41 бит/секElementCount : 1154Размер потока : 32,7 Кбайт (0%)Заголовок : FullЯзык : EnglishDefault : НетForced : Нет
Меню00:00:00.000 : en:Chapter 0100:10:35.000 : en:Chapter 0200:20:02.000 : en:Chapter 0300:31:43.000 : en:Chapter 0400:38:38.000 : en:Chapter 0500:48:32.000 : en:Chapter 0600:59:55.000 : en:Chapter 0701:08:57.000 : en:Chapter 0801:18:16.000 : en:Chapter 0901:28:53.000 : en:Chapter 1001:38:18.000 : en:Chapter 1101:47:32.000 : en:Chapter 12

Скриншоты

[Profile]  [PM] 
Display posts:    
Reply to topic

Current time is: 19-Aug 13:57

All times are UTC + 2



You cannot post new topics in this forum
You cannot reply to topics in this forum
You cannot edit your posts in this forum
You cannot delete your posts in this forum
You cannot vote in polls in this forum
You cannot attach files in this forum
You cannot download files in this forum