Свадьба Уайлд / The Wilde Wedding (Дэмиэн Харрис / Damian Harris) [2017, США, мелодрама, комедия, BDRip 720p] Dub (Netflix) + Sub Rus, Eng + Original Eng

Reply to topic
 
Author
Message

Faust ®

Gender: Unknown

Longevity: 7 years 11 months

Posts: 13226

Reputation: 0 [+] [-]

Faust · Post 10-Sep-2019 23:00

[Quote] 

Свадьба Уайлд / The Wilde Wedding- -Страна: США
Студия: Baby Mugs Films
Жанр: мелодрама, комедия
Год выпуска: 2017
Продолжительность: 01:35:51
Перевод: Профессиональный (дублированный) Netflix
Субтитры: русские (Full, Forced)
Оригинальная аудиодорожка: английский-Режиссер: Дэмиэн Харрис / Damian Harris
В ролях: Гленн Клоуз, Джон Малкович, Патрик Стюарт, Минни Драйвер, Грэйс Ван Паттен, Ноа Эммерих, Питер Фачинелли, Яэль Стоун, Лилли Энглерт, Кара Джексон-Описание: История пожилой актрисы Евы Уайлд, которая в прошлом была легендой Голливуда. Пережив несколько громких романов и разводов, Ева на старости лет снова готовится к свадьбе.-Сэмпл-Тип релиза: BDRip 720p | DON
Контейнер: MKV
Видео: AVC, 1280x544(2,40:1), 23,976 fps, 6849 kb/s
Аудио 1: E-AC3, 48,0 kHz, 6 ch, 640 kbps | Дубляж, Netflix
Аудио 2: AC3, 48,0 kHz, 6 ch, 640 kbps | English
Формат субтитров: softsub (SRT)-

MediaInfo

ОбщееПолное имя                               : The.Wilde.Wedding.2017.720p.BluRay.DD5.1.x264-Kyle.mkvФормат                                   : MatroskaВерсия формата                           : Version 4Размер файла                             : 5,44 ГбайтПродолжительность                        : 1 ч. 35 м.Общий поток                              : 8130 Кбит/секДата кодирования                         : UTC 2019-09-02 22:16:11Программа кодирования                    : mkvmerge v37.0.0 ('Leave It') 64-bitБиблиотека кодирования                   : libebml v1.3.9 + libmatroska v1.5.2
ВидеоИдентификатор : 1Формат : AVCФормат/Информация : Advanced Video CodecПрофиль формата : High@L4.1Настройки формата : CABAC / 12 Ref FramesПараметр CABAC формата : ДаПараметр RefFrames формата : 12 кадровИдентификатор кодека : V_MPEG4/ISO/AVCПродолжительность : 1 ч. 35 м.Битрейт : 6849 Кбит/секШирина : 1280 пикселейВысота : 534 пикселяСоотношение сторон : 2,40:1Режим частоты кадров : ПостоянныйЧастота кадров : 23,976 (24000/1001) кадра/секЦветовое пространство : YUVСубдискретизация насыщенности : 4:2:0Битовая глубина : 8 битТип развёртки : ПрогрессивнаяБит/(Пиксели*Кадры) : 0.418Размер потока : 4,59 Гбайт (84%)Заголовок : EnglishБиблиотека кодирования : x264 core 148 r2705+54 9f484c1 t_mod_Custom [8-bit@all X86_64]Настройки программы : cabac=1 / ref=12 / deblock=1:-3:-3 / analyse=0x3:0x133 / me=umh / subme=10 / psy=1 / fade_compensate=0.00 / psy_rd=1.00:0.00 / mixed_ref=1 / me_range=32 / chroma_me=1 / trellis=2 / 8x8dct=1 / cqm=0 / deadzone=21,11 / fast_pskip=0 / chroma_qp_offset=-2 / threads=6 / lookahead_threads=1 / sliced_threads=0 / nr=0 / decimate=0 / interlaced=0 / bluray_compat=0 / constrained_intra=0 / fgo=0 / bframes=8 / b_pyramid=2 / b_adapt=2 / b_bias=0 / direct=3 / weightb=1 / open_gop=0 / weightp=2 / keyint=250 / keyint_min=23 / scenecut=40 / intra_refresh=0 / rc=crf / mbtree=0 / crf=15.1000 / qcomp=0.60 / qpmin=0:0:0 / qpmax=69:69:69 / qpstep=4 / ip_ratio=1.25 / pb_ratio=1.15 / aq=3:0.85 / aq-sensitivity=10.00 / aq-factor=1.00:1.00:1.00 / aq2=0 / aq3=0 / zones=129859,137906,b=0.6Язык : EnglishDefault : ДаForced : Нет
Аудио #1Идентификатор : 2Формат : E-AC-3Формат/Информация : Enhanced AC-3Коммерческое название : Dolby Digital PlusИдентификатор кодека : A_EAC3Продолжительность : 1 ч. 35 м.Вид битрейта : ПостоянныйБитрейт : 640 Кбит/секКаналы : 6 каналовChannelLayout : L R C LFE Ls RsЧастота : 48,0 КГцЧастота кадров : 31,250 кадров/сек (1536 SPF)Метод сжатия : С потерямиРазмер потока : 439 Мбайт (8%)Заголовок : RussianЯзык : RussianServiceKind/String : Complete MainDefault : ДаForced : Нет
Аудио #2Идентификатор : 3Формат : AC-3Формат/Информация : Audio Coding 3Коммерческое название : Dolby DigitalИдентификатор кодека : A_AC3Продолжительность : 1 ч. 35 м.Вид битрейта : ПостоянныйБитрейт : 640 Кбит/секКаналы : 6 каналовChannelLayout : L R C LFE Ls RsЧастота : 48,0 КГцЧастота кадров : 31,250 кадров/сек (1536 SPF)Битовая глубина : 16 битМетод сжатия : С потерямиРазмер потока : 439 Мбайт (8%)Заголовок : EnglishЯзык : EnglishServiceKind/String : Complete MainDefault : НетForced : Нет
Текст #1Идентификатор : 4Формат : UTF-8Идентификатор кодека : S_TEXT/UTF8Идентификатор кодека/Информация : UTF-8 Plain TextПродолжительность : 1 ч. 7 м.Битрейт : 3 бит/секElementCount : 41Размер потока : 1,73 Кбайт (0%)Заголовок : ForcedЯзык : RussianDefault : ДаForced : Нет
Текст #2Идентификатор : 5Формат : UTF-8Идентификатор кодека : S_TEXT/UTF8Идентификатор кодека/Информация : UTF-8 Plain TextПродолжительность : 1 ч. 34 м.Битрейт : 91 бит/секElementCount : 1185Размер потока : 63,3 Кбайт (0%)Заголовок : RussianЯзык : RussianDefault : НетForced : Нет
Текст #3Идентификатор : 6Формат : UTF-8Идентификатор кодека : S_TEXT/UTF8Идентификатор кодека/Информация : UTF-8 Plain TextПродолжительность : 1 ч. 29 м.Битрейт : 60 бит/секElementCount : 1122Размер потока : 39,5 Кбайт (0%)Заголовок : EnglishЯзык : EnglishDefault : НетForced : Нет
Меню00:00:00.000 : :00:00:00.00000:08:24.170 : :00:08:24.17000:15:32.974 : :00:15:32.97400:23:25.154 : :00:23:25.15400:33:13.825 : :00:33:13.82500:39:13.476 : :00:39:13.47600:50:37.701 : :00:50:37.70100:57:00.459 : :00:57:00.45901:04:04.507 : :01:04:04.50701:10:44.991 : :01:10:44.99101:21:40.312 : :01:21:40.31201:26:39.528 : :01:26:39.528

Скриншоты


[Profile]  [PM] 
Display posts:    
Reply to topic

Current time is: 17-Sep 23:33

All times are UTC + 2



You cannot post new topics in this forum
You cannot reply to topics in this forum
You cannot edit your posts in this forum
You cannot delete your posts in this forum
You cannot vote in polls in this forum
You cannot attach files in this forum
You cannot download files in this forum