Поддубный / Poddubnyy (Глеб Орлов) [2014, Драма, спорт, биография, ВDRip-AVC1080p] [Лицензия ]

Reply to topic
 
Author
Message

Враг Нароода ®

Gender: Unknown

Longevity: 5 years 5 months

Posts: 397

Reputation: 1 [+] [-]

Враг Нароода · Post 17-Sep-2014 10:17

[Quote] 

--Поддубный / Poddubnyy-- --Год выпуска: 2014
Выпущено: Россия, Канал Россия, Красная стрела, Студия ТритэТ
Жанр: Драма, спорт, биография
Продолжительность: 02:02:37
Озвучка :НЕ ТРЕБУЕТСЯ, Лицензия
Субтитры: НЕТ-- --Режиссер: Глеб ОрловТ--В ролях: Михаил Пореченков, Дени Лаван, Владимир Ильин, Юрий Колокольников, Роман Мадянов, Александр Михайлов, Екатерина Шпица, Максим Сапрыкин, Пётр Крылов, Андрей ДебринТ-- Лучший российский фильм 2014-го года
Мне не с первого раза, но удалось посмотреть новый российский байопик «Поддубный», вышедший на экраны 10-го июля сего года.
Фильм рассказывает нам о непростой жизни потомственного запорожского казака и легендарного борца Ивана Максимовича Поддубного. Молодой Иван (Михаил Пореченков) работает портовым грузчиком в Крыму, и его жизнь меняется, когда в город прибывает цирк. Поддубный вызывается добровольно сразиться с борцом на поясах, и побеждает… Так и началась карьера «Русского Богатыря».
Режиссер Глеб Орлов, на счету которого не делающий ему кинематографической чести фильм «Наша Russia: Яйца судьбы», очень старался. Фильм рассказывает о трех периодах жизни Ивана: детстве, дореволюционном период е становления и гастролях в 1920-е годы. Фильм прыгает по этим этапам, и ты не сразу к этому привыкаешь. Отмечу: после просмотра мне показалось, что фильм немного затянули. Но после неудачной попытки воображения укоротить фильм, решил, что два часа — нормальный хронометраж. Мне понравились немного карикатурные Америка и Франция, да и прочие съемки хороши. Создатели дарят картинку приличного качества, на которую приятно смотреть, которая погружает вас в атмосферу. Это большой плюс.
Еще более большой плюс — это Михаил Пореченков. Как же он хорош! Он целиком и полностью отвоевывает первый план, завораживая своей игрой. Все шутки также крутятся вокруг его персонажа, и они добавляют положительных эмоций. Несомненно, огромный респект за набранные для роли четырнадцать килограммов. Екатерина Шпица неплохо смотрелась в роли возлюбленной главного героя, но не более. Достойно выглядели и другие актеры второго плана: Владимир Ильин, Юрий Колокольников, Дени Лаван, Роман Мадянов… Хотелось бы отметить Александра Михайлова, сыгравшего отца Ивана Поддубного. Известный всем по советскому фильму «Любовь и голуби» актер удачно изобразил авторитетного отца, который воспитал борца, не проигравшего ни одного поединка за всю карьеру.
Патриотичный, качественный, красивый, нескучный, а местами трогательный. Фильм о русской душе, о жизненных моментах, любви, отцах и детях… Лучший российский фильм 2014-го года, фильм который захочется пересмотреть. Картина обязательна к просмотру.Т
--Качество : ВDRip-AVC 1080p
Формат: MPEG-4
Кодек: H264
Видео: 8332Кбит/сек,1920х1080(16.9),в 25.000кадр/сек,AVC(Baseline@L4.0)(1Ref Frames)
Кодек: AAC
Звук Russian:461Кбит/сек,48.0КГц,2канала,AAC,(Version4)(LC)--

MediaInfo

General
Полное имя : D:\Б О Е В И К И\Поддубный\PODDUBNYI_ 2014__RUS_x264_Nikolai.Baranov_BDRip-AVC_(1080p)\PODDUBNYI_ 2014__RUS_x264_Nikolai.Baranov_BDRip-AVC_(1080p).mp4
Формат : MPEG-4
Профиль формата : Base Media
Идентификатор кодека : isom
Размер файла : 7.23 GiB
Продолжительность : 1h 57mn
Режим общего битрейта : Variable
Общий поток : 8 801 Kbps
Название фильма : Release for Piratbit.net_R.G. HD-Films
Дата кодирования : UTC 2014-09-14 23:14:04
Дата пометки : UTC 2014-09-14 23:14:04
Программа кодирования : Lavf51.12.1
Video
Идентификатор : 1
Формат : AVC
Формат/Информация : Advanced Video Codec
Профиль формата : Baseline@L4.0
Параметр CABAC формата : No
Параметр ReFrames формата : 1 frame
Параметр GOP формата : M=1, N=12
Идентификатор кодека : avc1
Идентификатор кодека/Информация : Advanced Video Coding
Продолжительность : 1h 57mn
Вид битрейта : Variable
Битрейт : 8 332 Kbps
Максимальный битрейт : 12.0 Mbps
Ширина : 1 920 pixels
Высота : 1 080 pixels
Соотношение сторон : 16:9
Режим частоты кадров : Constant
Частота кадров : 25.000 fps
Частота кадров в оригинале : 24.000 fps
Цветовое пространство : YUV
Субдискретизация насыщенности : 4:2:0
Битовая глубина : 8 bits
Тип развёртки : Progressive
Бит/(Пиксели*Кадры) : 0.161
Размер потока : 6.85 GiB (95%)
Язык : Russian
Дата кодирования : UTC 2014-09-14 23:14:04
Дата пометки : UTC 2014-09-14 23:14:04
Audio
Идентификатор : 2
Формат : AAC
Формат/Информация : Advanced Audio Codec
Профиль формата : LC
Идентификатор кодека : 40
Продолжительность : 1h 57mn
Вид битрейта : Variable
Битрейт : 461 Kbps
Каналы : 2 channels
Channel(s)_Original : 6 channels
Расположение каналов : Front: L C R, Side: L R, LFE
Частота : 48.0 KHz
Метод сжатия : Lossy
Размер потока : 388 MiB (5%)
Язык : Russian
Дата кодирования : UTC 2014-09-14 23:14:04
Дата пометки : UTC 2014-09-14 23:14:04
--

Скриншоты

-- --- --Релиз от: Nikolai.Baranov -- -- -- --
[Profile]  [PM] 
Display posts:    
Reply to topic

Current time is: 27-Feb 13:27

All times are UTC + 2



You cannot post new topics in this forum
You cannot reply to topics in this forum
You cannot edit your posts in this forum
You cannot delete your posts in this forum
You cannot vote in polls in this forum
You cannot attach files in this forum
You cannot download files in this forum