Он – дракон (Индар Джендубаев) [2015 г., Фэнтези, BDRip 1080p]

Reply to topic
 
Author
Message

groozin ®

Gender: Male

Longevity: 3 years 6 months

Posts: 45

Reputation: 0 [+] [-]

Location: ЛНР

groozin · Post 22-Sep-2016 12:41

[Quote] 

Он – дракон -«Любить страшно»-
Год выпуска: 2015
Страна: Россия / Базелевс Продакшн
Жанр: Фэнтези
Продолжительность: 01:47:04
Перевод: Оригинал
Режиссер: Индар Джендубаев
В ролях: Матвей Лыков, Мария Поезжаева, Станислав Любшин, Ёла Санько, Пётр Романов, Иева Андреевайте, Александр Лучинин, Алёна Чехова, Виктория Рунцова, Анастасия Дубровина, Любовь Фирсова, Егор Зубарчук, Юрий Горин, Марта Тимофеева, Дарья Дубникова, Андрей Лебединский, Виктор Королёв (II)

Описание:
Издревле в этих краях существовал страшный обычай - отдавать юных девушек дракону. Люди в страхе, горе и слезах пели драконью песню, призывая того прилететь и забрать невесту. Только участь той невесты была ужасна. Прошли годы, канули в лету драконы, в земли пришли покой и счастье, а страшный обычай, приносивший когда-то людям столько горя, теперь превратился лишь в свадебный обряд. И вот однажды, когда князь выдавал свою младшую дочь Мирославу за соседнего князя Игоря - внука драконоборца, победившего когда-то дракона, он вернулся... Дракон прилетел за своей невестой...
-6+         Рейтинг R- зрителям, достигшим 6 лет- -

MediaInfo:

Общее
Уникальный идентификатор : 247990513483922787644327088136601346632 (0xBA913C4F401B1EE6A00C2E6FAFCE2248)
Полное имя : E:\TORRENTY\Films\On.-Drakon.2015.BDRip.1080p\On.-Drakon.2015.BDRip.1080p\On.-Drakon.2015.BDRip.1080p.mkv
Формат : Matroska
Версия формата : Version 2
Размер файла : 9,46 Гбайт
Продолжительность : 1 ч. 47 м.
Общий поток : 12,6 Мбит/сек
Название фильма : BLUEBIRD
Дата кодирования : UTC 2016-02-06 04:36:25
Программа кодирования : mkvmerge v7.9.0 ('Birds') 64bit
Библиотека кодирования : libebml v1.3.1 + libmatroska v1.4.2
Видео
Идентификатор : 1
Формат : AVC
Формат/Информация : Advanced Video Codec
Профиль формата : High@L4.1
Параметр CABAC формата : Да
Параметр ReFrames формата : 5 кадров
Идентификатор кодека : V_MPEG4/ISO/AVC
Продолжительность : 1 ч. 47 м.
Битрейт : 10,5 Мбит/сек
Ширина : 1920 пикселей
Высота : 816 пикселей
Соотношение сторон : 2,35:1
Режим частоты кадров : Постоянный
Частота кадров : 24,000 кадра/сек
Цветовое пространство : YUV
Субдискретизация насыщенности : 4:2:0
Битовая глубина : 8 бит
Тип развёртки : Прогрессивная
Бит/(Пиксели*Кадры) : 0.279
Размер потока : 7,66 Гбайт (81%)
Заголовок : BLUEBIRD
Библиотека кодирования : x264 core 148 r2638 7599210
Настройки программы : cabac=1 / ref=5 / deblock=1:-3:-3 / analyse=0x3:0x133 / me=umh / subme=11 / psy=1 / psy_rd=1.00:0.00 / mixed_ref=1 / me_range=32 / chroma_me=1 / trellis=2 / 8x8dct=1 / cqm=0 / deadzone=21,11 / fast_pskip=0 / chroma_qp_offset=-2 / threads=12 / lookahead_threads=2 / sliced_threads=0 / nr=0 / decimate=0 / interlaced=0 / bluray_compat=0 / constrained_intra=0 / bframes=9 / b_pyramid=2 / b_adapt=2 / b_bias=0 / direct=3 / weightb=1 / open_gop=0 / weightp=2 / keyint=240 / keyint_min=24 / scenecut=40 / intra_refresh=0 / rc=2pass / mbtree=0 / bitrate=10500 / ratetol=1.0 / qcomp=0.60 / qpmin=0 / qpmax=69 / qpstep=4 / cplxblur=20.0 / qblur=0.5 / ip_ratio=1.40 / pb_ratio=1.30 / aq=3:0.80
Язык : English
Default : Да
Forced : Нет
Аудио #1
Идентификатор : 2
Формат : DTS
Формат/Информация : Digital Theater Systems
Режим : 16
Параметр Endianness формата : Big
Идентификатор кодека : A_DTS
Продолжительность : 1 ч. 47 м.
Вид битрейта : Постоянный
Битрейт : 1510 Кбит/сек
Каналы : 6 каналов
Расположение каналов : Front: L C R, Side: L R, LFE
Частота : 48,0 КГц
Частота кадров : 93,750 кадра/сек (512 spf)
Битовая глубина : 24 бит
Метод сжатия : С потерями
Размер потока : 1,13 Гбайт (12%)
Язык : Russian
Default : Да
Forced : Нет
Аудио #2
Идентификатор : 3
Формат : AC-3
Формат/Информация : Audio Coding 3
Расширение режима : CM (complete main)
Параметр Endianness формата : Big
Идентификатор кодека : A_AC3
Продолжительность : 1 ч. 47 м.
Вид битрейта : Постоянный
Битрейт : 640 Кбит/сек
Каналы : 6 каналов
Расположение каналов : Front: L C R, Side: L R, LFE
Частота : 48,0 КГц
Частота кадров : 31,250 кадров/сек (1536 spf)
Метод сжатия : С потерями
Размер потока : 490 Мбайт (5%)
Язык : Russian
Default : Нет
Forced : Нет
Меню
00:00:00.000 : en:Chapter 1
00:08:32.041 : en:Chapter 2
00:17:11.583 : en:Chapter 3
00:26:33.875 : en:Chapter 4
00:30:51.333 : en:Chapter 5
00:42:29.916 : en:Chapter 6
00:53:36.041 : en:Chapter 7
01:03:58.083 : en:Chapter 8
01:09:32.166 : en:Chapter 9
01:15:17.750 : en:Chapter 10
01:21:58.833 : en:Chapter 11
01:35:46.000 : en:Chapter 12
Качество: BDRip 1080p
Формат: Matroska
Данные видео: 1920x816, MPEG4 AVC, 10,5 Мбит/сек, 24,000 кадра/сек, 0.279 Бит/(Пиксели*Кадры)
Аудио#1: русский: DTS, 1510 Кбит/сек, 6 каналов, 48,0 КГц
Аудио#2: русский: AC3, 640 Кбит/сек, 6 каналов, 48,0 КГц

Скриншоты


[Profile]  [PM] 
Display posts:    
Reply to topic

Current time is: 28-Feb 23:00

All times are UTC + 2



You cannot post new topics in this forum
You cannot reply to topics in this forum
You cannot edit your posts in this forum
You cannot delete your posts in this forum
You cannot vote in polls in this forum
You cannot attach files in this forum
You cannot download files in this forum