Легенда о Коловрате / The legend of Kolowra [2017] (Джаник Файзиев, Иван Шурховецкий) [История, боевик, фэнтези ] [WEB-DL] [1080p] [DD5.1]

Reply to topic
 
Author
Message

Враг Нароода ®

Gender: Unknown

Longevity: 5 years 10 months

Posts: 433

Reputation: 1 [+] [-]

Враг Нароода · Post 31-Jan-2018 22:02

[Quote] 

--Легенда о Коловрате / The legend of Kolowra-- --Год выпуска: 2017
Выпущено: Россия , «Централ Партнершип»
Жанр:История, боевик, фэнтези
Продолжительность: 01:52:56--Озвучка : -Русский--IMDb --Режиссер:
Джаник Файзиев, Иван Шурховецкий--В ролях: Илья Малаков (Евпатий Коловрат), Полина Чернышова (Настя), Алексей Серебряков (Князь Юрий), Александр Ильин мл. (Каркуш), Игорь Савочкин (Ратмир), Тимофей Трибунцев , Александр Цой (Хан Батый), Юлия Хлынина (Лада)
-- XIII век. Русь раздроблена и вот-вот падет на колени перед ханом Золотой Орды Батыем. Испепеляя города и заливая русские земли кровью, захватчики не встречают серьезного сопротивления, и лишь один воин бросает им вызов. Молодой рязанский витязь Евпатий Коловрат возглавляет отряд смельчаков, чтобы отомстить за свою любовь и за свою родину. Его отвага поразит даже Батыя, а его имя навсегда останется в памяти народа. Воин, ставший легендой. Подвиг, сохранившийся в веках.-- --Качество : WEB-DL 1080p
Формат: MKV
Видео кодек: H264
Видео: 9399Kбит/сек,1920х1080(16.9),в 25.042кадр/сек,AVC (High@L4)(CABAC/2 Ref Frames)
Аудио Кодек:AC3
Аудио #1:AC3 , 640 Kbps, 48.0 KHz, 6 ch-Русский--

MediaInfo

Общее
Уникальный идентификатор : 43278392412097518536873370166315020245 (0x208F1D7D0915215C5055E75E4AC16FD5)
Полное имя : C:\ХОББИ\Nikolai.Baranov & PIRATIYA\Легенда о Коловрате (The legend of Kolowrat)\THE_LEGEND_OF_KOLOWRAT_2017_Russia_Н264_DD5.1_N.B_HD_1080p\The_legend_of_Kolowrat_Russia_Н264_DD5.1_N.B_HD_1080p.mkv
Формат : Matroska
Версия формата : Version 4 / Version 2
Размер файла : 7,99 Гбайт
Продолжительность : 1 ч. 53 м.
Режим общего битрейта : Переменный
Общий поток : 10,0 Мбит/сек
Название фильма : The legend of Kolowrat @ Nikolai.Baranov & PIRATIYA
Дата кодирования : UTC 2018-01-31 15:06:50
Программа кодирования : mkvmerge v20.0.0 ('I Am The Sun') 64-bit
Библиотека кодирования : libebml v1.3.5 + libmatroska v1.4.8
Видео
Идентификатор : 1
Формат : AVC
Формат/Информация : Advanced Video Codec
Профиль формата : High@L4
Настройки формата : CABAC / 2 Ref Frames
Параметр CABAC формата : Да
Параметр RefFrames формата : 2 кадра
Параметр GOP формата : M=2, N=15
Идентификатор кодека : V_MPEG4/ISO/AVC
Продолжительность : 1 ч. 53 м.
Вид битрейта : Переменный
Битрейт : 9399 Кбит/сек
Максимальный битрейт : 16,0 Мбит/сек
Ширина : 1920 пикселей
Высота : 1080 пикселей
Соотношение сторон : 16:9
Режим частоты кадров : Переменный
Частота кадров : 25,042 кадров/сек
Частота кадров в оригинале : 29,970 (30000/1001) кадров/сек
Цветовое пространство : YUV
Субдискретизация насыщенности : 4:2:0
Битовая глубина : 8 бит
Тип развёртки : Прогрессивная
Бит/(Пиксели*Кадры) : 0.181
Размер потока : 7,48 Гбайт (94%)
Заголовок : The_legend_of_Kolowrat_Russia_Н264_DD5.1_N.B_HD_1080p
Язык : Russian
Default : Да
Forced : Нет
Аудио
Идентификатор : 2
Формат : AC-3
Формат/Информация : Audio Coding 3
Идентификатор кодека : A_AC3
Продолжительность : 1 ч. 53 м.
Вид битрейта : Постоянный
Битрейт : 640 Кбит/сек
Каналы : 6 каналов
Расположение каналов : Front: L C R, Side: L R, LFE
Частота : 48,0 КГц
Частота кадров : 31,250 кадров/сек (1536 SPF)
Битовая глубина : 16 бит
Метод сжатия : С потерями
Размер потока : 521 Мбайт (6%)
Заголовок : Original@DD5.1 AC3 ,640 Kbps, 48.0 KHz, 6 ch
Язык : Russian
ServiceKind/String : Complete Main
Default : Да
Forced : Нет
Меню
00:00:00.000 : en:Глава 01 / en:Глава 01
--

Скриншоты

-- -- -- --Релиз от: Nikolai.Baranov & PIRATIYA -- -- -- --
[Profile]  [PM] 
Display posts:    
Reply to topic

Current time is: 15-Jul 07:15

All times are UTC + 2



You cannot post new topics in this forum
You cannot reply to topics in this forum
You cannot edit your posts in this forum
You cannot delete your posts in this forum
You cannot vote in polls in this forum
You cannot attach files in this forum
You cannot download files in this forum