Бездомный Бог / Норагами. Арагото / Noragami . Aragoto (Сезон 1-2 ,Серии 1-25 из 25) (Котаро Тамура) [2014-2015, Приключения, комедия, мистика, мультсериал , HDTVRip720р] [Rus , Jap]+[Sub Rus ]

Reply to topic
 
Author
Message

Враг Нароода ®

Gender: Unknown

Longevity: 4 years 7 months

Posts: 315

Reputation: 1 [+] [-]

Враг Нароода · Post 04-Feb-2016 16:11

[Quote] 

--Бездомный Бог ( Норагами. Арагото) /( Noragami . Aragoto) -- --Год выпуска: 2014-2015
Выпущено: Япония,
Жанр: Приключения, комедия, мистика, мультсериал
Сезон: 1-2
Серии: 1-25
Количество серий в е: 25
Продолжительность: 000:24:00
Перевод: Jenia aka Zub & Мария Гостюхина - Holydarkness, MantisFL
Озвучка: Любительская, многоголосая закадровая[ JAM & Ancord & Trina_D]
Субтитры: Русские (Софтсаб)-- Рейтинг на World Art 8.3 из 10--Режиссер: Котаро Тамура-- Ято – бродячий японский бог в образе худощавого синеглазого юноши в спортивном костюме. В синтоизме сила божества определяется числом верующих, а у нашего героя - ни храма, ни жрецов, все пожертвования умещаются в бутылке из-под сакэ. Парень в шейном платке подрабатывает мастером на все руки, малюя объявления на стенах, но дела идут совсем худо. Даже языкастая Маю, много лет работающая синки – Священным оружием Ято – покинула хозяина. А без оружия младший бог не сильнее обычного смертного мага, приходится (вот позор!) от злых духов прятаться. И кому вообще такой небожитель нужен? Однажды симпатичная старшеклассница Хиёри Ики бросилась под грузовик, чтобы спасти какого-то парня в черном. Кончилось это плохо – девушка не погибла, но обрела способность «выходить» из тела и гулять на «той стороне». Встретив там Ято и узнав виновника своих бед, Хиёри убедила бездомного бога исцелить ее, ибо тот сам признал, что долго жить между мирами никто не может. Вот только, познакомившись поближе, Ики поняла, что у нынешнего Ято не хватает сил, чтобы решить ее проблему. Что ж, надо брать дело в свои руки и лично направить бродягу на путь истинный: сначала подыскать непутевому оружие, потом помочь заработать, а там, глядишь, что и получится. Не зря говорят: чего хочет женщина – хочет Бог!-- --Качество :HDTVRip 720p
Формат: MKV
Видео кодек: H264
Видео: 1884Кбит/сек,1280x720(16.9),в 24.823кадр/сек,AVC(High@L4.1)(CABAC/4Ref Frames)
Аудио Кодек:AC3
Аудио #1:AC3 , 192 Kbps, 48.0 KHz, 6 ch- -Русский
Аудио #2: AC3, 192 Kbps, 48.0 KHz,6 ch - - Японский--

Доп. информация:

Звуковая дорожка сделана путем наложения чистого голоса озвучивателей на центральный канал оригинальной дорожки. Качество идентично звуковой дорожке.
--

Список эпизодов сезона

1 сезон
01. Домашний кот, бездомный бог и хвостик
02. Подобный снегу
03. Пришла беда - отворяй ворота
04. Там, где пребывает счастье
05. Граница
06. Страшная особа
07. Сомнения и судьба
08. Перейдя черту
09. Имя
10. Презренные
11. Брошенный бог
12. Осколок воспоминаний

2 сезон
01 - Названный посмертно
02 - Её воспоминания
03 - Ложная связь
04 - Желание
05 - Божественное одобрение и проклятие
06 - Что должно быть сделано
07 - Как поклоняться богу
08 - Бог погибели
09 - Рвущаяся нить
10 - Важное желание
11 - Возрождение
12 - Зовущий голос
13 - Бог — посланник удачи
--

MediaInfo 1сезона

Общее
Уникальный идентификатор : 211539504255198643345997980647240927391 (0x9F2506CD117304A68A84A418D326889F)
Полное имя : D:\А Н И М Э\Бездомный Бог (Норагами. Арагото)\Noragami_2014-2015_S01-S02_Rus_Jap[JAM & Ancord & Trina_D]_x264_DD5.1_N.B_HDTV_720p\S01\Noragami_2014_S01E01_Rus_Jap[JAM & Ancord & Trina_D]_x264_DD5.1_N.B_HDTV_720p.mkv
Формат : Matroska
Версия формата : Version 4 / Version 2
Размер файла : 398 Мбайт
Продолжительность : 24 м.
Общий поток : 2271 Кбит/сек
Название фильма : Noragami_2014_S01E01_Rus_Jap[JAM & Ancord & Trina_D]_x264_DD5.1_N.B_HDTV_720p
Дата кодирования : UTC 2016-02-01 17:07:04
Программа кодирования : mkvmerge v8.8.0 ('Wind at my back') 64bit
Библиотека кодирования : libebml v1.3.3 + libmatroska v1.4.4
Видео
Идентификатор : 1
Формат : AVC
Формат/Информация : Advanced Video Codec
Профиль формата : High@L4.1
Параметр CABAC формата : Да
Параметр ReFrames формата : 4 кадра
Идентификатор кодека : V_MPEG4/ISO/AVC
Продолжительность : 24 м.
Битрейт : 1884 Кбит/сек
Ширина : 1280 пикселей
Высота : 720 пикселей
Соотношение сторон : 16:9
Режим частоты кадров : Переменный
Частота кадров : 24,823 кадров/сек
Частота кадров в оригинале : 23,976 (24000/1001) кадра/сек
Цветовое пространство : YUV
Субдискретизация насыщенности : 4:2:0
Битовая глубина : 8 бит
Тип развёртки : Прогрессивная
Бит/(Пиксели*Кадры) : 0.082
Размер потока : 330 Мбайт (83%)
Библиотека кодирования : x264 core 138 r2358 9e941d1
Настройки программы : cabac=1 / ref=4 / deblock=1:-1:-1 / analyse=0x3:0x113 / me=umh / subme=9 / psy=1 / psy_rd=0.60:0.20 / mixed_ref=1 / me_range=32 / chroma_me=1 / trellis=2 / 8x8dct=1 / cqm=0 / deadzone=21,11 / fast_pskip=0 / chroma_qp_offset=-3 / threads=6 / lookahead_threads=1 / sliced_threads=0 / nr=0 / decimate=0 / interlaced=0 / bluray_compat=0 / constrained_intra=0 / bframes=3 / b_pyramid=0 / b_adapt=2 / b_bias=0 / direct=3 / weightb=1 / open_gop=0 / weightp=2 / keyint=240 / keyint_min=1 / scenecut=50 / intra_refresh=0 / rc=crf / mbtree=0 / crf=20.0 / qcomp=0.60 / qpmin=0 / qpmax=28 / qpstep=8 / ip_ratio=1.40 / pb_ratio=1.30 / aq=1:0.50
Default : Да
Forced : Нет
Цветовой диапазон : Limited
Основные цвета : BT.709
Характеристики трансфера : BT.709
Коэффициенты матрицы : BT.709
Аудио #1
Идентификатор : 3
Формат : AC-3
Формат/Информация : Audio Coding 3
Расширение режима : CM (complete main)
Параметр Endianness формата : Big
Идентификатор кодека : A_AC3
Продолжительность : 24 м.
Вид битрейта : Постоянный
Битрейт : 192 Кбит/сек
Каналы : 6 каналов
Расположение каналов : Front: L C R, Side: L R, LFE
Частота : 48,0 КГц
Частота кадров : 31,250 кадров/сек (1536 spf)
Метод сжатия : С потерями
Размер потока : 33,6 Мбайт (8%)
Default : Да
Forced : Нет
Аудио #2
Идентификатор : 4
Формат : AC-3
Формат/Информация : Audio Coding 3
Расширение режима : CM (complete main)
Параметр Endianness формата : Big
Идентификатор кодека : A_AC3
Продолжительность : 24 м.
Вид битрейта : Постоянный
Битрейт : 192 Кбит/сек
Каналы : 6 каналов
Расположение каналов : Front: L C R, Side: L R, LFE
Частота : 48,0 КГц
Частота кадров : 31,250 кадров/сек (1536 spf)
Метод сжатия : С потерями
Размер потока : 33,6 Мбайт (8%)
Default : Нет
Forced : Нет
Текст
Идентификатор : 2
Формат : ASS
Идентификатор кодека : S_TEXT/ASS
Идентификатор кодека/Информация : Advanced Sub Station Alpha
Продолжительность : 24 м.
Битрейт : 137 бит/сек
Count of elements : 349
Метод сжатия : Без потерь
Размер потока : 24,5 Кбайт (0%)
Default : Да
Forced : Нет
Меню
00:00:00.000 : en:Avant
00:03:22.869 : en:OP
00:05:02.836 : en:A-part
00:13:38.017 : en:B-part
00:22:34.887 : en:ED
00:24:08.013 : en:Next
--

MediaInfo 2сезона

Общее
Уникальный идентификатор : 231575238286293329373822085665633469729 (0xAE37C4C19EE9768686E02C4EA05A0521)
Полное имя : D:\А Н И М Э\Бездомный Бог (Норагами. Арагото)\Noragami_2014-2015_S01-S02_Rus_Jap[JAM & Ancord & Trina_D]_x264_DD5.1_N.B_HDTV_720p\S02\Noragami_Aragoto_2015_S02E01_Rus_Jap[JAM & Ancord & Trina_D]_x264_DD5.1_N.B_HDTV_720p.mkv
Формат : Matroska
Версия формата : Version 4 / Version 2
Размер файла : 425 Мбайт
Продолжительность : 24 м.
Общий поток : 2426 Кбит/сек
Название фильма : Noragami_Aragoto_2015_S02E01_Rus_Jap[JAM & Ancord & Trina_D]_x264_DD5.1_N.B_HDTV_720p
Дата кодирования : UTC 2016-02-03 10:26:03
Программа кодирования : mkvmerge v8.8.0 ('Wind at my back') 64bit
Библиотека кодирования : libebml v1.3.3 + libmatroska v1.4.4
Видео
Идентификатор : 1
Формат : AVC
Формат/Информация : Advanced Video Codec
Профиль формата : High@L4.1
Параметр CABAC формата : Да
Параметр ReFrames формата : 4 кадра
Идентификатор кодека : V_MPEG4/ISO/AVC
Продолжительность : 24 м.
Битрейт : 2040 Кбит/сек
Ширина : 1280 пикселей
Высота : 720 пикселей
Соотношение сторон : 16:9
Режим частоты кадров : Постоянный
Частота кадров : 23,976 (24000/1001) кадра/сек
Цветовое пространство : YUV
Субдискретизация насыщенности : 4:2:0
Битовая глубина : 8 бит
Тип развёртки : Прогрессивная
Бит/(Пиксели*Кадры) : 0.092
Размер потока : 357 Мбайт (84%)
Библиотека кодирования : x264 core 129 r2245+729M 1a52e03
Настройки программы : cabac=1 / ref=4 / deblock=1:1:-1 / analyse=0x3:0x113 / me=umh / subme=9 / psy=1 / fade_compensate=0.00 / psy_rd=1.00:0.00 / mixed_ref=1 / me_range=24 / chroma_me=1 / trellis=2 / 8x8dct=1 / cqm=0 / deadzone=21,11 / fast_pskip=1 / chroma_qp_offset=-2 / threads=8 / lookahead_threads=1 / sliced_threads=0 / nr=0 / decimate=1 / interlaced=0 / bluray_compat=0 / constrained_intra=0 / fgo=0 / bframes=9 / b_pyramid=2 / b_adapt=2 / b_bias=0 / direct=1 / weightb=1 / open_gop=0 / weightp=2 / keyint=240 / keyint_min=24 / scenecut=40 / intra_refresh=0 / rc=crf / mbtree=0 / crf=18.5 / qcomp=0.72 / qpmin=0 / qpmax=69 / qpstep=4 / ip_ratio=1.40 / pb_ratio=1.30 / aq=1:0.85
Default : Да
Forced : Нет
Цветовой диапазон : Limited
Основные цвета : BT.709
Характеристики трансфера : BT.709
Коэффициенты матрицы : BT.709
Аудио #1
Идентификатор : 3
Формат : AC-3
Формат/Информация : Audio Coding 3
Расширение режима : CM (complete main)
Параметр Endianness формата : Big
Идентификатор кодека : A_AC3
Продолжительность : 24 м.
Вид битрейта : Постоянный
Битрейт : 192 Кбит/сек
Каналы : 6 каналов
Расположение каналов : Front: L C R, Side: L R, LFE
Частота : 48,0 КГц
Частота кадров : 31,250 кадров/сек (1536 spf)
Метод сжатия : С потерями
Размер потока : 33,6 Мбайт (8%)
Default : Да
Forced : Нет
Аудио #2
Идентификатор : 4
Формат : AC-3
Формат/Информация : Audio Coding 3
Расширение режима : CM (complete main)
Параметр Endianness формата : Big
Идентификатор кодека : A_AC3
Продолжительность : 24 м.
Вид битрейта : Постоянный
Битрейт : 192 Кбит/сек
Каналы : 6 каналов
Расположение каналов : Front: L C R, Side: L R, LFE
Частота : 48,0 КГц
Частота кадров : 31,250 кадров/сек (1536 spf)
Метод сжатия : С потерями
Размер потока : 33,6 Мбайт (8%)
Default : Нет
Forced : Нет
Текст
Идентификатор : 2
Формат : ASS
Идентификатор кодека : S_TEXT/ASS
Идентификатор кодека/Информация : Advanced Sub Station Alpha
Продолжительность : 24 м.
Битрейт : 146 бит/сек
Count of elements : 398
Метод сжатия : Без потерь
Размер потока : 26,0 Кбайт (0%)
Default : Да
Forced : Нет
--

Скриншоты

/] [/URL]
-- 1Сезон-- 2Сезон--

Как закачать отдельный файл

1. Открыть торрент
2. Снять галки с тех файлов торрента, которые мы не хотим закачивать. Оставляем только на нужных нам файлах (файле).
3. Нажать О.К.
В клиенте utorrent
Инструкция
1) Открыть торрент

2) Снять галки с тех файлов торрента, которые мы не хотим закачивать:
* либо вручную, снимая с каждого файла галку( скрин №1)
* либо, нажав кнопку "Снять метки (Select None)", сняв сразу со всех файлов(скрин №2)
№1

№2

Оставляем только на нужных нам файлах (файле).

3)Нажать О.К
-- -- --Релиз от: Nikolai.Baranov & PIRATIYA -- -- -- --
[Profile]  [PM] 
Display posts:    
Reply to topic

Current time is: 22-Apr 18:14

All times are UTC + 2



You cannot post new topics in this forum
You cannot reply to topics in this forum
You cannot edit your posts in this forum
You cannot delete your posts in this forum
You cannot vote in polls in this forum
You cannot attach files in this forum
You cannot download files in this forum