Мужские каникулы (Серия 1-4 из 4) Леонид Белозорович) [2014, Боевик, драма, криминал, DVBRip-AVC]

Reply to topic
 
Author
Message

Враг Нароода ®

Gender: Unknown

Longevity: 5 years 8 months

Posts: 421

Reputation: 1 [+] [-]

Враг Нароода · Post 04-Oct-2014 10:37

[Quote] 

--Мужские каникулы-- --Год выпуска: 2014
Выпущено: Россия, продюсерский центр "Браво"
Жанр: Боевик, драма, криминал
Продолжительность: 00:50:30
Серия: 1-4
Количество серий в сезоне: 4
Перевод:НЕ ТРЕБУЕТСЯ
Субтитры : отсутствуют-- --Режиссер: Леонид Белозорович--В ролях: Алексей Кравченко, Александр Дзюба, Кирилл Кяро, Александр Шаляпин, Екатерина Маликова-- Молодая красавица Анна Попова готова пойти на все, чтобы прибрать к рукам состояние и бизнес своего мужа – успешного столичного предпринимателя Юрия. Она преподносит супругу, любителю поохотиться и порыбачить, щедрый подарок – путевку на Дальний Восток для экстремального отдыха под названием «Мужские каникулы». План Анны прост: вместе с мужем на «каникулы» поедет ее любовник и его лучший друг Сергей, который должен будет найти возможность убить Юрия, представив смерть товарища как несчастный случай. Третьим в путешествие отправляется их общий друг Кирилл, проигравший крупную сумму чужих денег и вынужденный скрываться. Прибывших на место охоты друзей снабдят оружием и всем необходимым для выживания в тайге, а потом вертолетом забросят в дикую природу. Их ждут охота, рыбная ловля, промывка золота старательским способом и… множество опасностей, проверок на прочность. Им предстоит узнать, какова она — цена настоящей мужской дружбы?--Качество : DVBRip-AVC
Формат: MPEG-4
Видео кодек: H264
Видео: 3131Кбит/сек,856х480(16.9),в 25.000кадр/сек,AVC(Baseline@L3.0)(1Ref Frames)
Аудио кодек: AAC
Аудио Russian :320Кбит/сек,48.0КГц,2канала,AAC,(LC)--

MediaInfo

General
Полное имя : D:\С Е Р И А Л Ы\Мужские каникулы\MUZHSKIE_KANIKULY_2014_RUS[NTV_RUSSIAN]_x264_Nikolai.Baranov_DVBRip-AVC\MUZHSKIE_KANIKULY_2014_E01_RUS[NTV_RUSSIAN]_x264_Nikolai.Baranov_DVBRip-AVC.mp4
Формат : MPEG-4
Профиль формата : Base Media
Идентификатор кодека : isom
Размер файла : 1.21 GiB
Продолжительность : 50mn 7s
Режим общего битрейта : Variable
Общий поток : 3 456 Kbps
Дата кодирования : UTC 2014-10-03 19:59:27
Дата пометки : UTC 2014-10-03 19:59:27
Программа кодирования : Lavf51.12.1
Video
Идентификатор : 1
Формат : AVC
Формат/Информация : Advanced Video Codec
Профиль формата : Baseline@L3.0
Параметр CABAC формата : No
Параметр ReFrames формата : 1 frame
Параметр GOP формата : M=1, N=12
Идентификатор кодека : avc1
Идентификатор кодека/Информация : Advanced Video Coding
Продолжительность : 50mn 7s
Вид битрейта : Variable
Битрейт : 3 131 Kbps
Максимальный битрейт : 4 500 Kbps
Ширина : 856 pixels
Высота : 480 pixels
Соотношение сторон : 16:9
Режим частоты кадров : Constant
Частота кадров : 25.000 fps
Частота кадров в оригинале : 24.000 fps
Цветовое пространство : YUV
Субдискретизация насыщенности : 4:2:0
Битовая глубина : 8 bits
Тип развёртки : Progressive
Бит/(Пиксели*Кадры) : 0.305
Размер потока : 1.10 GiB (91%)
Дата кодирования : UTC 2014-10-03 19:59:27
Дата пометки : UTC 2014-10-03 19:59:27
Audio
Идентификатор : 2
Формат : AAC
Формат/Информация : Advanced Audio Codec
Профиль формата : LC
Идентификатор кодека : 40
Продолжительность : 50mn 7s
Вид битрейта : Variable
Битрейт : 320 Kbps
Каналы : 2 channels
Channel(s)_Original : 6 channels
Расположение каналов : Front: L C R, Side: L R, LFE
Частота : 48.0 KHz
Метод сжатия : Lossy
Размер потока : 115 MiB (9%)
Дата кодирования : UTC 2014-10-03 19:59:27
Дата пометки : UTC 2014-10-03 19:59:27
--

Скриншоты

-- --

Как закачать отдельный файл

1. Открыть торрент
2. Снять галки с тех файлов торрента, которые мы не хотим закачивать. Оставляем только на нужных нам файлах (файле).
3. Нажать О.К.
Как докачать пропущенные файлы торрента:
1. Выделяем торрент одним нажатием левой кнопкой мыши.
2. Заходим на вкладку "Files (Файлы)"
3. И меняем нажатием правой кнопкой мыши приоритет на " Normal (нормальный)"
Как скачать одну серию из папки
Вы хотите скачать одну серию из сезона, а он раздается сразу целиком одним торрентом?
Всё элементарно
1. Сначала нажимаем на кнопку "Скачать"

2. Далее "Открыть"

3. Снимаем галочки, и ставим их на те серии, которые хотите скачать-
-- --Релиз от: Nikolai.Baranov -- -- -- --
[Profile]  [PM] 
Display posts:    
Reply to topic

Current time is: 25-May 18:58

All times are UTC + 2



You cannot post new topics in this forum
You cannot reply to topics in this forum
You cannot edit your posts in this forum
You cannot delete your posts in this forum
You cannot vote in polls in this forum
You cannot attach files in this forum
You cannot download files in this forum