ШАКАЛ / JACKAL (Серии 1-8 из 8) (Евгений Звездаков) [2016, Детектив , HDTVRip 1080p] [DD5.1]

Reply to topic
 
Author
Message

Враг Нароода ®

Gender: Unknown

Longevity: 5 years 8 months

Posts: 421

Reputation: 1 [+] [-]

Враг Нароода · Post 21-Oct-2016 17:15

[Quote] 

--ШАКАЛ / JACKAL Серии 1-8 -- --Год выпуска: 2016
Выпущено: Россия , , Студия "Русский проект", "Красный квадрат"
Жанр: Детектив
Продолжительность: 00:50:00
Серии: 1-8
Количество серий в сезоне: 8
Озвучка : -Русский
Субтитры: НЕТ
-- --Режиссер:
Евгений Звездаков--В ролях: Ирина Андрей Смоляков, Марина Александрова, Екатерина Климова, Вадим Андреев, Алексей Бардуков, Павел Чинарёв, Александра Бортич, Сергей Белов, Юрий Ицков, Андрей Феськов, Юрий Чурсин, Юрий Тарасов, Сергей Жигунов, Ирина Старшенбаум, Сергей Юшкевич, Анна Котова, Даниэла Стоянович, Мария Андреева, Игорь Филиппов, Дмитрий Мазуров, Ксения Щербакова, Александр Дробитько
-- Начало 70-х годов. Майор Черкасов и его команда расследуют новое дело. На этот раз речь идет об ограблениях. А это сфера отдела по борьбе с хищениями социалистической собственности (ОБХСС). Во время грабежей бандиты беспощадно убивают свидетелей. Ограбления организованы четко и продумано. И готовит их кто-то очень осведомленный. Руководство принимает решение объединить против «беспредельщиков» усилия двух ведомств московской милиции: МВД и ОБХСС. Вместе они готовят операцию по задержанию банды. Милиционерам придется столкнуться с хитрым и коварным противником. И потребуются огромные усилия доблестной опергруппы и проницательного Черкасова, чтобы победить жестокого врага.-- --Качество : HDTV 1080i
Формат: MKV
Видео кодек: H264
Видео: 8618Kбит/сек,1920х1080(16.9),в 49.809кадр/сек,AVC (High@L4)(CABAC/2 Ref Frames)
Аудио Кодек:AC3
Аудио #:AC3 , 384 Kbps, 48.0 KHz, 6 ch-Русский--

MediaInfo

Общее
Уникальный идентификатор : 231870763254918254210877640696585970724 (0xAE70AF43210557B4BDE96868C136E424)
Полное имя : C:\МОЙ ДОСУГ\НАШЕ КИНО\ШАКАЛ\JACKAL_2016_E01-E08_Russia_x264_DD5.1_N.B_HDTV_1080i\JACKAL_2016_E01-E02_Russia_x264_DD5.1_N.B_HDTV_1080i.mkv
Формат : Matroska
Версия формата : Version 4 / Version 2
Размер файла : 6,46 Гбайт
Продолжительность : 1 ч. 42 м.
Режим общего битрейта : Переменный
Общий поток : 9006 Кбит/сек
Название фильма : JACKAL_2016_E01-E02_Russia_x264_DD5.1_N.B_HDTV_1080i
Дата кодирования : UTC 2016-10-21 07:14:16
Программа кодирования : mkvmerge v9.5.0 ('Quiet Fire') 64bit
Библиотека кодирования : libebml v1.3.4 + libmatroska v1.4.5
Видео
Идентификатор : 1
Формат : AVC
Формат/Информация : Advanced Video Codec
Профиль формата : High@L4
Параметр CABAC формата : Да
Параметр ReFrames формата : 2 кадра
Параметр GOP формата : M=2, N=15
Идентификатор кодека : V_MPEG4/ISO/AVC
Продолжительность : 1 ч. 42 м.
Вид битрейта : Переменный
Битрейт : 8618 Кбит/сек
Максимальный битрейт : 16,0 Мбит/сек
Ширина : 1920 пикселей
Высота : 1080 пикселей
Соотношение сторон : 16:9
Режим частоты кадров : Переменный
Частота кадров : 49,809 кадров/сек
Частота кадров в оригинале : 29,970 (30000/1001) кадров/сек
Цветовое пространство : YUV
Субдискретизация насыщенности : 4:2:0
Битовая глубина : 8 бит
Тип развёртки : Прогрессивная
Бит/(Пиксели*Кадры) : 0.083
Размер потока : 6,18 Гбайт (96%)
Заголовок : JACKAL_2016_E01-E02_Russia_x264_DD5.1_N.B_HDTV_1080i
Язык : Russian
Default : Нет
Forced : Нет
Аудио
Идентификатор : 2
Формат : AC-3
Формат/Информация : Audio Coding 3
Расширение режима : CM (complete main)
Параметр Endianness формата : Big
Идентификатор кодека : A_AC3
Продолжительность : 1 ч. 42 м.
Вид битрейта : Постоянный
Битрейт : 384 Кбит/сек
Каналы : 6 каналов
Расположение каналов : Front: L C R, Side: L R, LFE
Частота : 48,0 КГц
Частота кадров : 31,250 кадров/сек (1536 spf)
Метод сжатия : С потерями
Размер потока : 282 Мбайт (4%)
Заголовок : Rus
Язык : Russian
Default : Нет
Forced : Нет
--

Скриншоты

-- -- -- --Релиз от: Nikolai.Baranov & PIRATIYA -- -- -- --
[Profile]  [PM] 
Display posts:    
Reply to topic

Current time is: 28-May 07:28

All times are UTC + 2



You cannot post new topics in this forum
You cannot reply to topics in this forum
You cannot edit your posts in this forum
You cannot delete your posts in this forum
You cannot vote in polls in this forum
You cannot attach files in this forum
You cannot download files in this forum