ХБ / (1 сезон) вып. 1-19 / (Гарик Харламов, Тимур Батрутдинов) [Скетчком, комедия, SATRip]

Reply to topic
 
Author
Message

groozin ®

Gender: Male

Longevity: 3 years 9 months

Posts: 45

Reputation: 0 [+] [-]

Location: ЛНР

groozin · Post 07-Apr-2017 20:36

[Quote] 

-ХБ / ХБ-шоу-Год выпуска: 2013
Страна: Россия, / "Comedy Club Production"
Жанр: Скетчком
Сезон: 1
Выпуск: 1-19
Продолжительность: ~ 00:24:00 выпуск
Перевод: Не требуется
Режиссёр: Егор Баранов
В ролях: Гарик Харламов, Тимур Батрутдинов---Описание: «ХБ» - комедийная программа с участием Гарика Харламова и Тимура Батрутдинова, которая помогает молодым людям принимать правильные решения даже в самых сложных жизненных ситуациях, а также отличать Х от Б.
Мы думали, что «ХБ» - это просто очень смешная комедия. Но, посмотрев внимательно, мы поняли - это еще и очень полезная программа, она может и должна использоваться для профилактики самых разных правонарушений.
Гарик Харламов и Тимур Батдрудинов создали целую галерею надолго запоминающихся персонажей, каждый из которых способен навсегда отвратить молодого человека от самой мысли о плохом поведении.
Жаль, что эту программу нельзя показывать зрителям младше 18 лет. -

MediaInfo:

Общее
Полное имя : F:HB-1.2013.SATRipHB-1.2013.SATRipHB.(09).2013.SATRip.avi
Формат : AVI
Формат/Информация : Audio Video Interleave
Размер файла : 290 Мбайт
Продолжительность : 22 м.
Общий поток : 1783 Кбит/сек
Библиотека кодирования : VirtualDub build 32842/release
Видео
Идентификатор : 0
Формат : MPEG-4 Visual
Профиль формата : Advanced Simple@L5
Параметр BVOP формата : 2
Параметр QPel формата : Нет
Параметр GMC формата : Без точки перехода
Параметр матрицы формата : Default (MPEG)
Идентификатор кодека : XVID
Идентификатор кодека/Подсказка : XviD
Продолжительность : 22 м.
Битрейт : 1645 Кбит/сек
Ширина : 704 пикселя
Высота : 400 пикселей
Соотношение сторон : 16:9
Частота кадров : 25,000 кадров/сек
Цветовое пространство : YUV
Субдискретизация насыщенности : 4:2:0
Битовая глубина : 8 бит
Тип развёртки : Прогрессивная
Метод сжатия : С потерями
Бит/(Пиксели*Кадры) : 0.234
Размер потока : 268 Мбайт (92%)
Библиотека кодирования : XviD 64
Аудио
Идентификатор : 1
Формат : MPEG Audio
Версия формата : Version 1
Профиль формата : Layer 3
Режим : Joint stereo
Расширение режима : MS Stereo
Идентификатор кодека : 55
Идентификатор кодека/Подсказка : MP3
Продолжительность : 22 м.
Вид битрейта : Постоянный
Битрейт : 128 Кбит/сек
Каналы : 2 канала
Частота : 48,0 КГц
Метод сжатия : С потерями
Размер потока : 20,8 Мбайт (7%)
Выравнивание : Разделение по промежуткам
Продолжительность промежутка : 40 мс. (1,00 видеокадр)
Время предзагрузки промежутка : 500 мс.
________________________________________________________________________
Общее
Полное имя : F:HB-1.2013.SATRipHB-1.2013.SATRipHB.(04).2013.SATRip.avi
Формат : AVI
Формат/Информация : Audio Video Interleave
Размер файла : 279 Мбайт
Продолжительность : 20 м.
Общий поток : 1884 Кбит/сек
Название фильма : rip by Roumek
Библиотека кодирования : TMPGEnc 4.0 XPress Version. 4.7.7.307
Видео
Идентификатор : 0
Формат : MPEG-4 Visual
Профиль формата : Advanced Simple@L5
Параметр BVOP формата : 2
Параметр QPel формата : Нет
Параметр GMC формата : Без точки перехода
Параметр матрицы формата : Default (H.263)
Режим смешивания : Сжатый битовый поток
Идентификатор кодека : XVID
Идентификатор кодека/Подсказка : XviD
Продолжительность : 20 м.
Битрейт : 1743 Кбит/сек
Ширина : 720 пикселей
Высота : 400 пикселей
Соотношение сторон : 16:9
Частота кадров : 25,000 кадров/сек
Цветовое пространство : YUV
Субдискретизация насыщенности : 4:2:0
Битовая глубина : 8 бит
Тип развёртки : Прогрессивная
Метод сжатия : С потерями
Бит/(Пиксели*Кадры) : 0.242
Размер потока : 258 Мбайт (93%)
Библиотека кодирования : XviD 1.2.1 (UTC 2008-12-04)
Аудио
Идентификатор : 1
Формат : MPEG Audio
Версия формата : Version 1
Профиль формата : Layer 3
Режим : Joint stereo
Идентификатор кодека : 55
Идентификатор кодека/Подсказка : MP3
Продолжительность : 20 м.
Вид битрейта : Постоянный
Битрейт : 128 Кбит/сек
Каналы : 2 канала
Частота : 48,0 КГц
Метод сжатия : С потерями
Размер потока : 18,9 Мбайт (7%)
Выравнивание : Соединение по промежуткам
Продолжительность промежутка : 40 мс. (1,00 видеокадр)
Время предзагрузки промежутка : 384 мс.
Качество: SATRip, WEB-DLRip
Формат: AVI
Данные видео: XVID, MPEG-4, 704x400, 720x400, ~1600 kbps avg, ~0.234 bit/pixel
Данные аудио: MP3, 128 Kbps, 44.1, 48.0 KHz, 2ch

Скриншоты


[Profile]  [PM] 
Display posts:    
Reply to topic

Current time is: 28-May 05:11

All times are UTC + 2



You cannot post new topics in this forum
You cannot reply to topics in this forum
You cannot edit your posts in this forum
You cannot delete your posts in this forum
You cannot vote in polls in this forum
You cannot attach files in this forum
You cannot download files in this forum