(Black / Gothic) Rotting Christ - Triarchy Of The Lost Lovers [Original CD] [US EDITION] (1996), FLAC (image+.cue) lossless

Reply to topic
 
Author
Message

Rogvald ®

Gender: Male

Longevity: 11 years

Posts: 836

Reputation: 1006 [+] [-]

Rogvald · Post 15-Jun-2014 02:15

[Quote] 

Rotting Christ / Triarchy Of The Lost Lovers [Original CD] [US EDITION]
Жанр: Black/Gothic
Страна-производитель диска: USA
Год издания диска: 1996
Издатель (лейбл): Century Black
Номер по каталогу: 7828-2
Страна: Greece
Аудио кодек: FLAC (*.flac)
Тип рипа: image+.cue
Битрейт аудио: lossless
Продолжительность: 46:21
Источник (релизер): Рип с моего диска
Наличие сканов в содержимом раздачи: да
Треклист:
1. King Of A Stellar War
2. A Dynasty From The Ice
3. Archon
4. Snowing Still
5. Shadows Follow
6. One With The Forest
7. Diastric Alchemy
8. The Opposite Bank
9. The First Field Of The Battle

Лог создания рипа

Exact Audio Copy V0.99 prebeta 5 from 4. May 2009
Отчёт EAC об извлечении, выполненном 18. ноября 2010, 16:05
Rotting Christ / Triarchy Of The Lost Lovers
Дисковод: MATSHITADVD-RAM UJ-860S Adapter: 2 ID: 0
Режим чтения : Достоверность
Использование точного потока : Да
Отключение кэша аудио : Да
Использование указателей C2 : Нет
Коррекция смещения при чтении : 102
Способность читать области Lead-in и Lead-out : Нет
Заполнение пропущенных сэмплов тишиной : Да
Удаление блоков с тишиной в начале и конце : Нет
При вычислениях CRC использовались нулевые сэмплы : Да
Интерфейс : Встроенный Win32-интерфейс для Win NT/2000
Выходной формат : Пользовательский кодировщик
Выбранный битрейт : 768 kBit/s
Качество : Высокий
Добавление ID3-тэга : Нет
Утилита сжатия : C:\Program Files (x86)\Exact Audio Copy\FLAC\FLAC.EXE
Дополнительные параметры : -6 -V -T "ARTIST=%a" -T "TITLE=%t" -T "ALBUM=%g" -T "DATE=%y" -T "TRACKNUMBER=%n" -T "GENRE=%m" -T "COMMENT=%e" %s -o %d
TOC извлечённого CD
Трек | Старт | Длительность | Начальный сектор | Конечный сектор
---------------------------------------------------------------------
1 | 0:00.00 | 6:18.00 | 0 | 28349
2 | 6:18.00 | 4:29.35 | 28350 | 48559
3 | 10:47.35 | 4:11.07 | 48560 | 67391
4 | 14:58.42 | 5:42.20 | 67392 | 93061
5 | 20:40.62 | 4:35.63 | 93062 | 113749
6 | 25:16.50 | 4:33.55 | 113750 | 134279
7 | 29:50.30 | 4:58.70 | 134280 | 156699
8 | 34:49.25 | 5:54.27 | 156700 | 183276
9 | 40:43.52 | 5:37.23 | 183277 | 208574
Характеристики диапазона извлечения и сообщения об ошибках
Выбранный диапазон
Имя файла C:\Users\Сергей721\Music\Rotting Christ [1996] [CD] Triarchy Of The Lost Lovers [EAC-FLAC]\Rotting Christ - Triarchy Of The Lost Lovers.wav
Пиковый уровень 98.4 %
Качество диапазона 100.0 %
CRC теста 75091477
CRC копии 75091477
Копирование... OK
Ошибок не произошло
AccurateRip: сводка
Трек 1 точное извлечение (доверие 3) [144497D3]
Трек 2 точное извлечение (доверие 3) [4C0C84B6]
Трек 3 точное извлечение (доверие 3) [A7F454E5]
Трек 4 точное извлечение (доверие 3) [F9004B60]
Трек 5 точное извлечение (доверие 3) [0A5087F6]
Трек 6 точное извлечение (доверие 3) [6E7120DF]
Трек 7 точное извлечение (доверие 3) [167A8C78]
Трек 8 точное извлечение (доверие 3) [18336B86]
Трек 9 точное извлечение (доверие 3) [618A94B9]
Все треки извлечены точно
Конец отчёта

Содержание индексной карты (.CUE)

REM GENRE "Death Metal"
REM DATE 1996
REM DISCID 6F0ADD09
REM COMMENT "ExactAudioCopy v0.99pb5"
PERFORMER "Rotting Christ"
TITLE "Triarchy Of The Lost Lovers"
FILE "Rotting Christ - Triarchy Of The Lost Lovers.flac" WAVE
TRACK 01 AUDIO
TITLE "King Of A Stellar War"
PERFORMER "Rotting Christ"
INDEX 01 00:00:00
TRACK 02 AUDIO
TITLE "A Dynasty From The Ice"
PERFORMER "Rotting Christ"
INDEX 01 06:18:00
TRACK 03 AUDIO
TITLE "Archon"
PERFORMER "Rotting Christ"
INDEX 00 10:46:23
INDEX 01 10:47:35
TRACK 04 AUDIO
TITLE "Snowing Still"
PERFORMER "Rotting Christ"
INDEX 00 14:57:15
INDEX 01 14:58:42
TRACK 05 AUDIO
TITLE "Shadows Follow"
PERFORMER "Rotting Christ"
INDEX 00 20:40:01
INDEX 01 20:40:62
TRACK 06 AUDIO
TITLE "One With The Forest"
PERFORMER "Rotting Christ"
INDEX 00 25:14:60
INDEX 01 25:16:50
TRACK 07 AUDIO
TITLE "Diastric Alchemy"
PERFORMER "Rotting Christ"
INDEX 00 29:48:52
INDEX 01 29:50:30
TRACK 08 AUDIO
TITLE "The Opposite Bank"
PERFORMER "Rotting Christ"
INDEX 00 34:47:46
INDEX 01 34:49:25
TRACK 09 AUDIO
TITLE "The First Field Of The Battle"
PERFORMER "Rotting Christ"
INDEX 00 40:42:54
INDEX 01 40:43:52

Об альбоме (сборнике)

All songs written by ROTTING CHRIST
Produced and engineered by Andy Classen.
Recorded at Stage One Studio, Buhne, Germany
Necromayhem - Guitar, Vocals
Mutilator - Bass
Necrosavron - Drums
(p)(c) I996 CENTURY MEDIA Records

скрытый текст

King of a Stellar War
the king of the inner dominion
the circle of the lost lovers
those who start the monarchy
melodies of them who gave up the ghost
a new sovereign
son of the first king
after the seizure plague
dressed in serrated armour
sensual descendant
of carnal love
semaphore
of all unearthly souls
married
to the divine war
king of a stellar war
dedicated to his father's vow
swear in power to low
asylum in his world
dazzle his hordes
emeron
A Dynasty From the Ice
thousand meters under
buried city of ice
observance of the prophecy
the water melts the ice
crystal logic
barbarian king
preserved for centuries
the missing link
shining glory
freezing myth
sallow mass
in the war they pass
living by night
never seen the sun
the rays against
cold gloomy faith
cross the outer space
near the inner domain
in the freezing star of thuge
starting place, safe refuge
read minds of their enemies
strategy, defense
in an unequal battle
throw waves of cold
Archon
a vision comes true
a dead man that returns
a mythic horse pronounces him
as an emperor returned
followed by black moves
contrast the white horse
aliens' dark motives
the army of the beloved
thousand waves swallow him
dance under the grey skin
shades get life and follow him
archon - the shadows call
archon - the planets call
the echoes in the other world
"emeron, i'm over all"
the chapter goes right
the prophecy will be done
time signed the last king
who's buried under ice
Snowing Still
all my dreams
take me backwards
i can see
a little child
his mother
in black
what a pleasure
touched by death
snow falls
cover the dead
cold doesn't
touch her
ice melts
as the warm tears fall
kissing the dead brother
and it's snowing still
in a lake of white
swans stare
at their direction
sad they live
black strange birds are coming
although early
the night deep falls
tears turn to ice
by the cold
the snow covers his body
and the snow stops falling
in shape like crows and as swans
become wizards speaking human words
the morning next together they will be
Shadows Follow
different words
empty mouths
dead faces
in a shadow world
i've seen one season
i've felt only cold
i'm so alone
ride over
fall within
shadows follow
swallow me
a face in the window
it thinks but it's senseless
it sees but it's blind
it sounds but it's dead
mesmerized in loneliness
into colourful walls
my shadow, my company
it will last so long
once again in my window
this winter will last forever
One With the Forest
among deep green hills
two eyes get lost in forests
crystal flower images slip
among the trunks of the trees
visions appear from the ground
shades without roots but still exist
strange animals
an eternal vital chain
monstrous pre-historic
a level of unearthly power
but still...
everything flows
some kind of a magic scar
everything gets harmonized
with the move of light
quick move of image
impossible to stay untouched
material follows the equilibrium
quickly release the earthly flesh
Diastric Alchemy
carbonic meteorites
volcanoes throw cold
volcanic explosions
the universe's bond
priceless treasures
the explosion born
buried forever
under coal
surrounded by thorns
unwrought stones
amphoras and bones
those cultures that are gone
beyond all fantasy
somewhere in polar stars
never imagine
the mineral world
confused planets
alchemy
relightened stars/alchemy
stench of fumes/alchemy
a diastric alchemy
lave - refresh the cold
moon dust - above all
solomon - your treasure is held
wisdom - the universe's law
The Opposite Bank
a deadly song is coming
meet the sound of waves
the blind wizard
stands on the highest rock
remembers all that's seen
and makes pessimistic prophecies
these are his latest hours
in the mortal world
atheron charon's beloved child
comes singing the march
the sun, the water, the land
the old man loses his sense
after the bright light
a yound soul released
an old body floating on the sea
the poorest side of the universe
among wild horizons
you'll feel the immortality
you'll step on the opposite bank
a body became a prison
an eternal soul
come to me
you will be able
you go everywhere
you see everything
The First Field of The Battle
the north strongest wind
throw arrows in the high wall
a captive will survive
free he will revive
from town to town
in the distant sea
he'll bring an army
of poor and miserable
an earthquake will happen
thousands will be killed
the big theatre
filled with a crowd
will be creaked
fire in the east
victory's feast
the hunting eagle
has landed in the east
the sky is burning
the slaves rebel
the king is dead
a new age revealed
the space is empty
the tyrants laid in earth
the slaves unlock the chains
the first field of the battle
[Profile]  [PM] 
Display posts:    
Reply to topic

Current time is: 21-Sep 05:28

All times are UTC + 2



You cannot post new topics in this forum
You cannot reply to topics in this forum
You cannot edit your posts in this forum
You cannot delete your posts in this forum
You cannot vote in polls in this forum
You cannot attach files in this forum
You cannot download files in this forum