(Dark / Black Metal) Rotting Christ - Khronos (2000) (2006 re-released), FLAC (image+.cue), lossless

Reply to topic
 
Author
Message

Rogvald ®

Gender: Male

Longevity: 11 years

Posts: 836

Reputation: 1006 [+] [-]

Rogvald · Post 16-Jun-2014 17:30

[Quote] 

Rotting Christ - Khronos
Жанр: Dark / Black Metal
Страна-производитель диска: Germany
Год издания диска: 2006
Издатель (лейбл): Century Media
Номер по каталогу: 77294-2
Страна: Greece
Аудио кодек: FLAC (*.flac)
Тип рипа: image+.cue, Test&Copy
Битрейт аудио: lossless
Продолжительность: 00:59:33
Источник: Original CD
Полиграфия: да
Трэклист:
01. Thou Art Blind (02:47)
02. If It Ends Tomorrow (04:28)
03. My Sacred Path (05:39)
04. Aeternatus (03:14)
05. Art of Sin (05:19)
06. Lucifer Over London (05:16)
07. Law of the Serpent (02:08)
08. You Are I (03:27)
09. Khronos (06:38)
10. Fateless (04:10)
11. Time Stands Still (05:04)
12. Glory of Sadness (11:23)
13. After Dark I Feel (bonus video track), формат MPEG (352х288)

Screenshots:

Скрины по размеру видео

EAC log:

Exact Audio Copy V1.0 beta 1 from 15. November 2010
EAC extraction logfile from 1. April 2011, 18:45
Rotting Christ / Khronos
Used drive : PIONEER DVD-RW DVR-112D Adapter: 0 ID: 0
Read mode : Secure
Utilize accurate stream : Yes
Defeat audio cache : Yes
Make use of C2 pointers : No
Read offset correction : 48
Overread into Lead-In and Lead-Out : No
Fill up missing offset samples with silence : Yes
Delete leading and trailing silent blocks : No
Null samples used in CRC calculations : Yes
Used interface : Native Win32 interface for Win NT & 2000
Used output format : User Defined Encoder
Selected bitrate : 128 kBit/s
Quality : High
Add ID3 tag : No
Command line compressor : C:\Program Files (x86)\Exact Audio Copy\FLAC\FLAC.EXE
Additional command line options : -8 -V -T "ARTIST=%a" -T "TITLE=%t" -T "ALBUM=%g" -T "DATE=%y" -T "TRACKNUMBER=%n" -T "GENRE=%m" -T "COMMENT=EAC FLAC -8" %s
TOC of the extracted CD
Track | Start | Length | Start sector | End sector
---------------------------------------------------------
1 | 0:00.00 | 2:47.25 | 0 | 12549
2 | 2:47.25 | 4:28.20 | 12550 | 32669
3 | 7:15.45 | 5:38.32 | 32670 | 58051
4 | 12:54.02 | 3:14.64 | 58052 | 72665
5 | 16:08.66 | 5:18.29 | 72666 | 96544
6 | 21:27.20 | 5:15.68 | 96545 | 120237
7 | 26:43.13 | 2:08.22 | 120238 | 129859
8 | 28:51.35 | 3:27.24 | 129860 | 145408
9 | 32:18.59 | 6:37.29 | 145409 | 175212
10 | 38:56.13 | 4:10.09 | 175213 | 193971
11 | 43:06.22 | 5:04.20 | 193972 | 216791
12 | 48:10.42 | 11:23.00 | 216792 | 268016
13 | 62:05.42 | 4:38.60 | 279417 | 300326
Range status and errors
Selected range
Filename F:\Rotting Christ - Khronos\Rotting Christ - Khronos.wav
Peak level 98.4 %
Extraction speed 0.6 X
Range quality 100.0 %
Test CRC 3BB44063
Copy CRC 3BB44063
Copy OK
No errors occurred
AccurateRip summary
Track 1 accurately ripped (confidence 5) [CCC08057]
Track 2 accurately ripped (confidence 5) [B072E164]
Track 3 accurately ripped (confidence 5) [159F04A2]
Track 4 accurately ripped (confidence 5) [5383712F]
Track 5 accurately ripped (confidence 5) [AA1245AD]
Track 6 accurately ripped (confidence 5) [C8EC831A]
Track 7 accurately ripped (confidence 5) [3EDDA66E]
Track 8 accurately ripped (confidence 5) [3F742C05]
Track 9 accurately ripped (confidence 5) [604485A3]
Track 10 accurately ripped (confidence 5) [A102802C]
Track 11 accurately ripped (confidence 5) [3B14E175]
Track 12 accurately ripped (confidence 5) [72495EE0]
All tracks accurately ripped
End of status report
==== Log checksum EB3CEE2ACCDDD9EF9D685B2BA46D81BC9673E7EA0E0C886AC8BD23F13C025414 ====
[Profile]  [PM] 
Display posts:    
Reply to topic

Current time is: 19-Sep 11:08

All times are UTC + 2



You cannot post new topics in this forum
You cannot reply to topics in this forum
You cannot edit your posts in this forum
You cannot delete your posts in this forum
You cannot vote in polls in this forum
You cannot attach files in this forum
You cannot download files in this forum