(Black Metal) Rotting Christ - Passage To Arcturo + Non Serviam (2006), FLAC (image+.cue), lossless

Reply to topic
 
Author
Message

Rogvald ®

Gender: Male

Longevity: 11 years

Posts: 836

Reputation: 1006 [+] [-]

Rogvald · Post 16-Jun-2014 17:38

[Quote] 

Rotting Christ - Passage To Arcturo + Non Serviam
Жанр: Black Metal
Год выпуска диска: 2006
Производитель диска: France, Season Of Mist, SOM 124
Аудио кодек: FLAC
Тип рипа: image+.cue, Test&Copy
Битрейт аудио: lossless
Продолжительность: 00:34:38; 00:48:56

1991 - Passage to Arcturo:


01. Old Coffin Spirit (04:53)
02. Forest of N'Gai (05:53)
03. The Mystical Meeting (04:36)
04. Gloria De Domino Inferni (01:38)
05. Inside The Eye Of Algond (05:57)
06. The Nereid Of Esgalduin (03:53)
07. Vicious Joy & Black Delight (04:32)
08. Feast of the Grand Whore (03:16)

EAC log:

Exact Audio Copy V0.99 prebeta 5 from 4. May 2009
EAC extraction logfile from 5. October 2009, 20:59
Rotting Christ / Passage to Arcturo
Used drive : PIONEER DVD-RW DVR-112D Adapter: 0 ID: 0
Read mode : Secure
Utilize accurate stream : Yes
Defeat audio cache : Yes
Make use of C2 pointers : No
Read offset correction : 48
Overread into Lead-In and Lead-Out : No
Fill up missing offset samples with silence : Yes
Delete leading and trailing silent blocks : No
Null samples used in CRC calculations : Yes
Used interface : Native Win32 interface for Win NT & 2000
Used output format : User Defined Encoder
Selected bitrate : 128 kBit/s
Quality : High
Add ID3 tag : No
Command line compressor : C:\Program Files (x86)\Exact Audio Copy\Flac\flac.exe
Additional command line options : -8 -V -T "ARTIST=%a" -T "TITLE=%t" -T "ALBUM=%g" -T "DATE=%y" -T "TRACKNUMBER=%n" -T "GENRE=%m" -T "COMMENT=EAC FLAC -8" %s
TOC of the extracted CD
Track | Start | Length | Start sector | End sector
---------------------------------------------------------
1 | 0:00.00 | 4:53.66 | 0 | 22040
2 | 4:53.66 | 5:52.46 | 22041 | 48486
3 | 10:46.37 | 4:36.22 | 48487 | 69208
4 | 15:22.59 | 1:37.33 | 69209 | 76516
5 | 17:00.17 | 5:57.37 | 76517 | 103328
6 | 22:57.54 | 3:52.26 | 103329 | 120754
7 | 26:50.05 | 4:32.59 | 120755 | 141213
8 | 31:22.64 | 3:15.71 | 141214 | 155909
Range status and errors
Selected range
Filename D:\Rotting Christ - Passage To Arcturo + Non Serviam\CD1\Rotting Christ - Passage to Arcturo.wav
Peak level 97.7 %
Range quality 100.0 %
Test CRC 796D543C
Copy CRC 796D543C
Copy OK
No errors occurred
AccurateRip summary
Track 1 accurately ripped (confidence 3) [7D82067A]
Track 2 accurately ripped (confidence 3) [BD52EE5F]
Track 3 accurately ripped (confidence 3) [E276A441]
Track 4 accurately ripped (confidence 3) [F222CD70]
Track 5 accurately ripped (confidence 3) [782E6F0C]
Track 6 accurately ripped (confidence 3) [4C3F4440]
Track 7 accurately ripped (confidence 3) [C80D8561]
Track 8 accurately ripped (confidence 3) [827F42A8]
All tracks accurately ripped
End of status report

1994 - Non Serviam:


01. The Fifth Illusion (05:34)
02. Wolfera The Jackal (07:20)
03. Non Serviam (05:20)
04. Morallity Of A Dark Age (05:08)
05. Where Mortals Have No Pride (07:54)
06. Fethroesforia (Instrumental) (01:43)
07. Mephesis Of Black Crystal (05:30)
08. Ice Shaped God (04:01)
09. Saturn Unlock Avey's Son (06:26)

EAC log:

Exact Audio Copy V0.99 prebeta 5 from 4. May 2009
EAC extraction logfile from 5. October 2009, 21:18
Rotting Christ / Non Serviam
Used drive : PIONEER DVD-RW DVR-112D Adapter: 0 ID: 0
Read mode : Secure
Utilize accurate stream : Yes
Defeat audio cache : Yes
Make use of C2 pointers : No
Read offset correction : 48
Overread into Lead-In and Lead-Out : No
Fill up missing offset samples with silence : Yes
Delete leading and trailing silent blocks : No
Null samples used in CRC calculations : Yes
Used interface : Native Win32 interface for Win NT & 2000
Used output format : User Defined Encoder
Selected bitrate : 128 kBit/s
Quality : High
Add ID3 tag : No
Command line compressor : C:\Program Files (x86)\Exact Audio Copy\Flac\flac.exe
Additional command line options : -8 -V -T "ARTIST=%a" -T "TITLE=%t" -T "ALBUM=%g" -T "DATE=%y" -T "TRACKNUMBER=%n" -T "GENRE=%m" -T "COMMENT=EAC FLAC -8" %s
TOC of the extracted CD
Track | Start | Length | Start sector | End sector
---------------------------------------------------------
1 | 0:00.00 | 5:34.63 | 0 | 25112
2 | 5:34.63 | 7:19.49 | 25113 | 58086
3 | 12:54.37 | 5:20.12 | 58087 | 82098
4 | 18:14.49 | 5:07.71 | 82099 | 105194
5 | 23:22.45 | 7:54.29 | 105195 | 140773
6 | 31:16.74 | 1:42.74 | 140774 | 148497
7 | 32:59.73 | 5:29.66 | 148498 | 173238
8 | 38:29.64 | 4:00.33 | 173239 | 191271
9 | 42:30.22 | 6:26.05 | 191272 | 220226
10 | 51:28.27 | 19:38.23 | 231627 | 319999
Range status and errors
Selected range
Filename D:\Rotting Christ - Passage To Arcturo + Non Serviam\CD2\Rotting Christ - Non Serviam.wav
Peak level 100.0 %
Range quality 100.0 %
Test CRC B8B70CC4
Copy CRC B8B70CC4
Copy OK
No errors occurred
AccurateRip summary
Track 1 accurately ripped (confidence 3) [BE993BAD]
Track 2 accurately ripped (confidence 3) [435FF872]
Track 3 accurately ripped (confidence 3) [0780BA1C]
Track 4 accurately ripped (confidence 3) [21AA3CED]
Track 5 accurately ripped (confidence 3) [260B4B9C]
Track 6 accurately ripped (confidence 3) [702BCE4C]
Track 7 accurately ripped (confidence 3) [A7327DAD]
Track 8 accurately ripped (confidence 3) [DF292F51]
Track 9 accurately ripped (confidence 3) [AB179A99]
All tracks accurately ripped
End of status report
Доп. информация:
1991 - Passage to Arcturo
Bonus tracks:
07. Vicious Joy & Black Delight (taken from 1992 7" EP "Dawn Of The Iconoclast", never released on CD before!)
08. Feast of the Grand Whore (taken from 1989 demo "Satanas Te Deum").
1994 - Non Serviam
Bonus video tracks:
10. Morality Of A Dark Age - live in Mexico, 1994.
11. Feast Of The Grand Whore - live in Mexico, 1994.
12. Non Serviam - live in Greece, 2002.
[Profile]  [PM] 
Display posts:    
Reply to topic

Current time is: 24-Sep 23:22

All times are UTC + 2



You cannot post new topics in this forum
You cannot reply to topics in this forum
You cannot edit your posts in this forum
You cannot delete your posts in this forum
You cannot vote in polls in this forum
You cannot attach files in this forum
You cannot download files in this forum