(Black Metal) [CD] Dark Funeral - Reissues 2013 - (1994-2009), (7 CDs), FLAC (image+.cue), lossless

Reply to topic
 
Author
Message

Rogvald ®

Gender: Male

Longevity: 11 years

Posts: 836

Reputation: 1006 [+] [-]

Rogvald · Post 17-Jan-2015 05:55

[Quote] 


Reissues 2013

Жанр: Black Metal Носитель: CD
Страна-производитель диска: Germany Издатель (лейбл): Century Media Records Ltd.
Страна: Sweden Аудиокодек: FLAC (*.flac)
Тип рипа: image+.cue Битрейт аудио: lossless
Источник (релизер): CD из личной коллекции Наличие сканов в содержимом раздачи: да (front, back & CD)

1994 (2013)-In The Sign...

Номер по каталогу: 9983662
Продолжительность: 35:29
Треклист:
01. Open The Gates
02. Shadows Over Transylvania
03. My Dark Desires
04. In The Sign Of The Horns
05. Equimanthorn (Bathory Cover)
06. Call From The Grave (Bathory Cover)
07. Open The Gates (Live)
08. Shadows Over Transylvania (Live)
09. My Dark Desires (Live)

Лог создания рипа

Exact Audio Copy V1.0 beta 3 from 29. August 2011
EAC extraction logfile from 22. February 2014, 12:15
Dark Funeral / In The Sign... (2013 Reissue)
Used drive : HP DVD Writer 1170d Adapter: 2 ID: 0
Read mode : Secure
Utilize accurate stream : Yes
Defeat audio cache : Yes
Make use of C2 pointers : No
Read offset correction : 6
Overread into Lead-In and Lead-Out : No
Fill up missing offset samples with silence : Yes
Delete leading and trailing silent blocks : No
Null samples used in CRC calculations : Yes
Used interface : Native Win32 interface for Win NT & 2000
Used output format : User Defined Encoder
Selected bitrate : 1024 kBit/s
Quality : High
Add ID3 tag : No
Command line compressor : C:\Program Files\Exact Audio Copy\FLAC\FLAC.EXE
Additional command line options : -V -8 -T "Date=%year%" -T "Genre=%genre%" -T"COMMENT=Ripped by Ungern666" -8 -V %source%
TOC of the extracted CD
Track | Start | Length | Start sector | End sector
---------------------------------------------------------
1 | 0:00.00 | 4:34.07 | 0 | 20556
2 | 4:34.07 | 4:22.35 | 20557 | 40241
3 | 8:56.42 | 3:52.68 | 40242 | 57709
4 | 12:49.35 | 3:43.47 | 57710 | 74481
5 | 16:33.07 | 3:21.53 | 74482 | 89609
6 | 19:54.60 | 4:34.71 | 89610 | 110230
7 | 24:29.56 | 3:54.62 | 110231 | 127842
8 | 28:24.43 | 3:16.16 | 127843 | 142558
9 | 31:40.59 | 3:48.28 | 142559 | 159686
Range status and errors
Selected range
Filename C:\EAC\Ungern666\Dark Funeral - In The Sign... (2013 Reissue).wav
Peak level 100.0 %
Extraction speed 5.6 X
Range quality 100.0 %
Test CRC CEBEE5A8
Copy CRC CEBEE5A8
Copy OK
No errors occurred
AccurateRip summary
Track 1 accurately ripped (confidence 1) [0DC70D5D] (AR v2)
Track 2 accurately ripped (confidence 1) [3D1F50F0] (AR v2)
Track 3 accurately ripped (confidence 1) [3D878C2B] (AR v2)
Track 4 accurately ripped (confidence 1) [D00053E1] (AR v2)
Track 5 accurately ripped (confidence 1) [E73B7C09] (AR v2)
Track 6 accurately ripped (confidence 1) [5830E473] (AR v2)
Track 7 accurately ripped (confidence 1) [934E8569] (AR v2)
Track 8 accurately ripped (confidence 1) [1BD10231] (AR v2)
Track 9 accurately ripped (confidence 1) [2B20A8EF] (AR v2)
All tracks accurately ripped
End of status report
---- CUETools DB Plugin V2.1.5
[CTDB TOCID: iz06ytBvGLaUvnx.xITjWJ6zRys-] found
Submit result: iz06ytBvGLaUvnx.xITjWJ6zRys- has been confirmed
Track | CTDB Status
1 | (2/2) Accurately ripped
2 | (2/2) Accurately ripped
3 | (2/2) Accurately ripped
4 | (2/2) Accurately ripped
5 | (2/2) Accurately ripped
6 | (2/2) Accurately ripped
7 | (2/2) Accurately ripped
8 | (2/2) Accurately ripped
9 | (2/2) Accurately ripped
==== Log checksum 96A673E55EB77D758DF35BEB0B3418117DCE2DEA5CE5C49D88287EDBB211934E ====

1996 (2013)-The Secrets Of The Black Arts

Номер по каталогу: 9983672
Продолжительность: 40:46/31:49
Треклист:

CD 1

01. The Dark Age Has Arrived
02. The Secrets Of The Black Art
03. My Dark Desires
04. The Dawn No More Rises
05. When Angels Forever Die
06. The Fire Eternal
07. Satan's Mayhem
08. Shadows Over Transylvania
09. Bloodfrozen
10. Satanic Blood (Von Cover)
11. Dark Are The Paths To Eternity (A Summoning Nocturnal)

Лог создания рипа

Exact Audio Copy V1.0 beta 3 from 29. August 2011
EAC extraction logfile from 22. February 2014, 12:44
Dark Funeral / The Secrets Of The Black Arts (2013 Reissue) CD 1
Used drive : HP DVD Writer 1170d Adapter: 2 ID: 0
Read mode : Secure
Utilize accurate stream : Yes
Defeat audio cache : Yes
Make use of C2 pointers : No
Read offset correction : 6
Overread into Lead-In and Lead-Out : No
Fill up missing offset samples with silence : Yes
Delete leading and trailing silent blocks : No
Null samples used in CRC calculations : Yes
Used interface : Native Win32 interface for Win NT & 2000
Used output format : User Defined Encoder
Selected bitrate : 1024 kBit/s
Quality : High
Add ID3 tag : No
Command line compressor : C:\Program Files\Exact Audio Copy\FLAC\FLAC.EXE
Additional command line options : -V -8 -T "Date=%year%" -T "Genre=%genre%" -T"COMMENT=Ripped by Ungern666" -8 -V %source%
TOC of the extracted CD
Track | Start | Length | Start sector | End sector
---------------------------------------------------------
1 | 0:00.00 | 0:16.09 | 0 | 1208
2 | 0:16.09 | 3:41.32 | 1209 | 17815
3 | 3:57.41 | 3:47.00 | 17816 | 34840
4 | 7:44.41 | 3:58.02 | 34841 | 52692
5 | 11:42.43 | 4:06.60 | 52693 | 71202
6 | 15:49.28 | 3:54.06 | 71203 | 88758
7 | 19:43.34 | 4:53.40 | 88759 | 110773
8 | 24:36.74 | 3:41.31 | 110774 | 127379
9 | 28:18.30 | 4:20.07 | 127380 | 146886
10 | 32:38.37 | 2:11.49 | 146887 | 156760
11 | 34:50.11 | 5:56.00 | 156761 | 183460
Range status and errors
Selected range
Filename C:\EAC\Ungern666\Dark Funeral - The Secrets Of The Black Arts (2013 Reissue) CD 1.wav
Peak level 100.0 %
Extraction speed 5.8 X
Range quality 99.9 %
Test CRC 3423EC4F
Copy CRC 3423EC4F
Copy OK
No errors occurred
AccurateRip summary
Track 1 accurately ripped (confidence 2) [89995416] (AR v2)
Track 2 accurately ripped (confidence 2) [E7F08204] (AR v2)
Track 3 accurately ripped (confidence 2) [104DBBBD] (AR v2)
Track 4 accurately ripped (confidence 2) [CBCF1C01] (AR v2)
Track 5 accurately ripped (confidence 2) [B7661A0C] (AR v2)
Track 6 accurately ripped (confidence 2) [E35C0119] (AR v2)
Track 7 accurately ripped (confidence 2) [8C29875A] (AR v2)
Track 8 accurately ripped (confidence 2) [0F840E0F] (AR v2)
Track 9 accurately ripped (confidence 2) [0876CA57] (AR v2)
Track 10 accurately ripped (confidence 2) [EC6B8FCC] (AR v2)
Track 11 accurately ripped (confidence 2) [364D003E] (AR v2)
All tracks accurately ripped
End of status report
---- CUETools DB Plugin V2.1.5
[CTDB TOCID: YtTH40tmeg4lBqjdZ4pnFxwJYz4-] found
Submit result: YtTH40tmeg4lBqjdZ4pnFxwJYz4- has been confirmed
Track | CTDB Status
1 | (4/4) Accurately ripped
2 | (4/4) Accurately ripped
3 | (4/4) Accurately ripped
4 | (4/4) Accurately ripped
5 | (4/4) Accurately ripped
6 | (4/4) Accurately ripped
7 | (4/4) Accurately ripped
8 | (4/4) Accurately ripped
9 | (4/4) Accurately ripped
10 | (4/4) Accurately ripped
11 | (4/4) Accurately ripped
==== Log checksum AB83E41F4C7026AFDBB0E4B0CC01920D4AB5956F3D2944E88384DFB834728E87 ====

CD 2

01. Shadows Over Transylvania
02. The Dawn No More Rises
03. The Secrets Of The Black Arts
04. Satan's Mayhem
05. Bloodfrozen
06. My Dark Desires
07. Dark Are The Paths To Eternity (A Summoning Nocturnal)
08. The Fire Eternal
Previously unreleased and now legendary 8-track Unisound recording.

Лог создания рипа

Exact Audio Copy V1.0 beta 3 from 29. August 2011
EAC extraction logfile from 22. February 2014, 13:04
Dark Funeral / The Secrets Of The Black Arts (2013 Reissue) CD 2
Used drive : HP DVD Writer 1170d Adapter: 2 ID: 0
Read mode : Secure
Utilize accurate stream : Yes
Defeat audio cache : Yes
Make use of C2 pointers : No
Read offset correction : 6
Overread into Lead-In and Lead-Out : No
Fill up missing offset samples with silence : Yes
Delete leading and trailing silent blocks : No
Null samples used in CRC calculations : Yes
Used interface : Native Win32 interface for Win NT & 2000
Used output format : User Defined Encoder
Selected bitrate : 1024 kBit/s
Quality : High
Add ID3 tag : No
Command line compressor : C:\Program Files\Exact Audio Copy\FLAC\FLAC.EXE
Additional command line options : -V -8 -T "Date=%year%" -T "Genre=%genre%" -T"COMMENT=Ripped by Ungern666" -8 -V %source%
TOC of the extracted CD
Track | Start | Length | Start sector | End sector
---------------------------------------------------------
1 | 0:00.00 | 3:39.10 | 0 | 16434
2 | 3:39.10 | 3:40.11 | 16435 | 32945
3 | 7:19.21 | 3:26.39 | 32946 | 48434
4 | 10:45.60 | 4:48.64 | 48435 | 70098
5 | 15:34.49 | 3:35.43 | 70099 | 86266
6 | 19:10.17 | 3:22.47 | 86267 | 101463
7 | 22:32.64 | 5:39.30 | 101464 | 126918
8 | 28:12.19 | 3:37.26 | 126919 | 143219
Range status and errors
Selected range
Filename C:\EAC\Ungern666\Dark Funeral - The Secrets Of The Black Arts (2013 Reissue) CD 2.wav
Peak level 100.0 %
Extraction speed 4.7 X
Range quality 100.0 %
Test CRC 587270F8
Copy CRC 587270F8
Copy OK
No errors occurred
AccurateRip summary
Track 1 accurately ripped (confidence 2) [1C716CB4] (AR v2)
Track 2 accurately ripped (confidence 2) [8D9C9535] (AR v2)
Track 3 accurately ripped (confidence 2) [7ECD75F7] (AR v2)
Track 4 accurately ripped (confidence 2) [966A8ECD] (AR v2)
Track 5 accurately ripped (confidence 2) [F5009E1A] (AR v2)
Track 6 accurately ripped (confidence 2) [D60C6362] (AR v2)
Track 7 accurately ripped (confidence 2) [24B8314D] (AR v2)
Track 8 accurately ripped (confidence 2) [A934E5E5] (AR v2)
All tracks accurately ripped
End of status report
---- CUETools DB Plugin V2.1.5
[CTDB TOCID: JogRcEmFntakkcEjllEqSTuuIdk-] found
Submit result: JogRcEmFntakkcEjllEqSTuuIdk- has been confirmed
Track | CTDB Status
1 | (4/4) Accurately ripped
2 | (4/4) Accurately ripped
3 | (4/4) Accurately ripped
4 | (4/4) Accurately ripped
5 | (4/4) Accurately ripped
6 | (4/4) Accurately ripped
7 | (4/4) Accurately ripped
8 | (4/4) Accurately ripped
==== Log checksum 7FDAE3E18F294958969B9ECA87EB70E157DC4D3D348E50DB7DB35D4EDA83AA5A ====

1998 (2013)-Vobiscum Satanas

Номер по каталогу: 9983682
Продолжительность: 52:24
Треклист:
01. Ravenna Strigoi Mortii
02. Enriched By Evil
03. Thy Legions Come
04. Evil Prevail
05. Slava Satan
06. The Black Winged Horde
07. Vobiscum Satanas
08. Ineffable King Of Darkness
09. Enriched By Evil (Live)*
10. Thy Legions Come (Live)*
11. Vobiscum Satanas (Live)*
12. Ineffable King Of Darkness (Live)*
* Bonus Tracks - Live At Hultsfreds Festival 1998

Лог создания рипа

Exact Audio Copy V1.0 beta 3 from 29. August 2011
EAC extraction logfile from 22. February 2014, 13:32
Dark Funeral / Vobiscum Satanas (2013 Reissue)
Used drive : HP DVD Writer 1170d Adapter: 2 ID: 0
Read mode : Secure
Utilize accurate stream : Yes
Defeat audio cache : Yes
Make use of C2 pointers : No
Read offset correction : 6
Overread into Lead-In and Lead-Out : No
Fill up missing offset samples with silence : Yes
Delete leading and trailing silent blocks : No
Null samples used in CRC calculations : Yes
Used interface : Native Win32 interface for Win NT & 2000
Used output format : User Defined Encoder
Selected bitrate : 1024 kBit/s
Quality : High
Add ID3 tag : No
Command line compressor : C:\Program Files\Exact Audio Copy\FLAC\FLAC.EXE
Additional command line options : -V -8 -T "Date=%year%" -T "Genre=%genre%" -T"COMMENT=Ripped by Ungern666" -8 -V %source%
TOC of the extracted CD
Track | Start | Length | Start sector | End sector
---------------------------------------------------------
1 | 0:00.00 | 4:25.03 | 0 | 19877
2 | 4:25.03 | 4:41.03 | 19878 | 40955
3 | 9:06.06 | 4:11.62 | 40956 | 59842
4 | 13:17.68 | 4:27.45 | 59843 | 79912
5 | 17:45.38 | 3:58.17 | 79913 | 97779
6 | 21:43.55 | 4:36.58 | 97780 | 118537
7 | 26:20.38 | 4:59.27 | 118538 | 140989
8 | 31:19.65 | 3:40.28 | 140990 | 157517
9 | 35:00.18 | 4:40.55 | 157518 | 178572
10 | 39:40.73 | 4:14.41 | 178573 | 197663
11 | 43:55.39 | 5:00.40 | 197664 | 220203
12 | 48:56.04 | 3:28.32 | 220204 | 235835
Range status and errors
Selected range
Filename C:\EAC\Ungern666\Dark Funeral - Vobiscum Satanas (2013 Reissue).wav
Peak level 99.9 %
Extraction speed 5.3 X
Range quality 100.0 %
Test CRC 55017008
Copy CRC 55017008
Copy OK
No errors occurred
AccurateRip summary
Track 1 accurately ripped (confidence 1) [44D46F52] (AR v2)
Track 2 accurately ripped (confidence 1) [E760C408] (AR v2)
Track 3 accurately ripped (confidence 1) [21CA0C16] (AR v2)
Track 4 accurately ripped (confidence 1) [D1EBAE81] (AR v2)
Track 5 accurately ripped (confidence 1) [0315A496] (AR v2)
Track 6 accurately ripped (confidence 1) [6F3EAE20] (AR v2)
Track 7 accurately ripped (confidence 1) [F32257C9] (AR v2)
Track 8 accurately ripped (confidence 1) [5AB5C770] (AR v2)
Track 9 accurately ripped (confidence 1) [10F80476] (AR v2)
Track 10 accurately ripped (confidence 1) [ECDF71F1] (AR v2)
Track 11 accurately ripped (confidence 1) [2F59EE3D] (AR v2)
Track 12 accurately ripped (confidence 1) [55E17C8C] (AR v2)
All tracks accurately ripped
End of status report
---- CUETools DB Plugin V2.1.5
[CTDB TOCID: QQIvGGL0aIwSh0VpojDDWj.KcjQ-] found
Submit result: QQIvGGL0aIwSh0VpojDDWj.KcjQ- has been confirmed
Track | CTDB Status
1 | (1/1) Accurately ripped
2 | (1/1) Accurately ripped
3 | (1/1) Accurately ripped
4 | (1/1) Accurately ripped
5 | (1/1) Accurately ripped
6 | (1/1) Accurately ripped
7 | (1/1) Accurately ripped
8 | (1/1) Accurately ripped
9 | (1/1) Accurately ripped
10 | (1/1) Accurately ripped
11 | (1/1) Accurately ripped
12 | (1/1) Accurately ripped
==== Log checksum BA7E898AA8FAEAD49079BFD66F421ACA5544E065DF63C906F5C9D7F1E36567CA ====

2001 (2013)-Diabolis Interium

Номер по каталогу: 9883692
Продолжительность: 77:45
Треклист:
01. The Arrival of Satan's Empire
02. Hail Murder
03. Goddess of Sodomy
04. Diabolis Interium
05. An Apprentice of Satan
06. Thus I Have Spoken
07. Armageddon Finally Comes
08. Heart of Ice
09. An Apprentice Of Satan 2000
10. The Trial (King Diamond Cover)
11. Dead Skin Mask (Slayer Cover)
12. Remember The Fallen (Sodom Cover)
13. Pagan Fears (Mayhem Cover)
14. Hail Murder (Live)
15. Thus I Have Spoken (Live)
16. Armaggeddon Finally Comes (Live)
Tracks 9-13: Teach Children To Worship Satan EP (2000)
Tracks 14-16: Live In South America 2003

Лог создания рипа

Exact Audio Copy V1.0 beta 3 from 29. August 2011
EAC extraction logfile from 22. February 2014, 14:11
Dark Funeral / Diabolis Interium (2013 Reissue)
Used drive : HP DVD Writer 1170d Adapter: 2 ID: 0
Read mode : Secure
Utilize accurate stream : Yes
Defeat audio cache : Yes
Make use of C2 pointers : No
Read offset correction : 6
Overread into Lead-In and Lead-Out : No
Fill up missing offset samples with silence : Yes
Delete leading and trailing silent blocks : No
Null samples used in CRC calculations : Yes
Used interface : Native Win32 interface for Win NT & 2000
Used output format : User Defined Encoder
Selected bitrate : 1024 kBit/s
Quality : High
Add ID3 tag : No
Command line compressor : C:\Program Files\Exact Audio Copy\FLAC\FLAC.EXE
Additional command line options : -V -8 -T "Date=%year%" -T "Genre=%genre%" -T"COMMENT=Ripped by Ungern666" -8 -V %source%
TOC of the extracted CD
Track | Start | Length | Start sector | End sector
---------------------------------------------------------
1 | 0:00.00 | 3:46.45 | 0 | 16994
2 | 3:46.45 | 5:01.70 | 16995 | 39639
3 | 8:48.40 | 4:11.53 | 39640 | 58517
4 | 13:00.18 | 4:20.49 | 58518 | 78066
5 | 17:20.67 | 6:04.36 | 78067 | 105402
6 | 23:25.28 | 4:59.24 | 105403 | 127851
7 | 28:24.52 | 3:21.36 | 127852 | 142962
8 | 31:46.13 | 4:34.18 | 142963 | 163530
9 | 36:20.31 | 6:06.07 | 163531 | 190987
10 | 42:26.38 | 5:28.07 | 190988 | 215594
11 | 47:54.45 | 4:47.23 | 215595 | 237142
12 | 52:41.68 | 4:16.04 | 237143 | 256346
13 | 56:57.72 | 6:32.38 | 256347 | 285784
14 | 63:30.35 | 5:08.27 | 285785 | 308911
15 | 68:38.62 | 5:00.20 | 308912 | 331431
16 | 73:39.07 | 4:06.51 | 331432 | 349932
Range status and errors
Selected range
Filename C:\EAC\Ungern666\Dark Funeral - Diabolis Interium (2013 Reissue).wav
Peak level 100.0 %
Extraction speed 6.1 X
Range quality 100.0 %
Test CRC 6E68DE3B
Copy CRC 6E68DE3B
Copy OK
No errors occurred
AccurateRip summary
Track 1 accurately ripped (confidence 1) [068B2AC0] (AR v2)
Track 2 accurately ripped (confidence 1) [ACA39D65] (AR v2)
Track 3 accurately ripped (confidence 1) [48D7FA5E] (AR v2)
Track 4 accurately ripped (confidence 1) [04365A4A] (AR v2)
Track 5 accurately ripped (confidence 1) [A7361A5A] (AR v2)
Track 6 accurately ripped (confidence 1) [B18D6D52] (AR v2)
Track 7 accurately ripped (confidence 1) [2FDD8B19] (AR v2)
Track 8 accurately ripped (confidence 1) [FA16398B] (AR v2)
Track 9 accurately ripped (confidence 1) [E32181BB] (AR v2)
Track 10 accurately ripped (confidence 1) [795FF9B7] (AR v2)
Track 11 accurately ripped (confidence 1) [1F95D6AC] (AR v2)
Track 12 accurately ripped (confidence 1) [04B6419F] (AR v2)
Track 13 accurately ripped (confidence 1) [E8763B25] (AR v2)
Track 14 accurately ripped (confidence 1) [D95289DB] (AR v2)
Track 15 accurately ripped (confidence 1) [B9E4314E] (AR v2)
Track 16 accurately ripped (confidence 1) [BD51C3C6] (AR v2)
All tracks accurately ripped
End of status report
---- CUETools DB Plugin V2.1.5
[CTDB TOCID: 0AKTuznQXxY1WI3l1Oq4K.fbr34-] found
Submit result: 0AKTuznQXxY1WI3l1Oq4K.fbr34- has been confirmed
Track | CTDB Status
1 | (1/1) Accurately ripped
2 | (1/1) Accurately ripped
3 | (1/1) Accurately ripped
4 | (1/1) Accurately ripped
5 | (1/1) Accurately ripped
6 | (1/1) Accurately ripped
7 | (1/1) Accurately ripped
8 | (1/1) Accurately ripped
9 | (1/1) Accurately ripped
10 | (1/1) Accurately ripped
11 | (1/1) Accurately ripped
12 | (1/1) Accurately ripped
13 | (1/1) Accurately ripped
14 | (1/1) Accurately ripped
15 | (1/1) Accurately ripped
16 | (1/1) Accurately ripped
==== Log checksum 00668D6565AD5A73E6558DA079C7E1EBB658F6A9F417663DF367EC6CBF43813B ====

2005 (2013)-Attera Totus Sanctus

Номер по каталогу: 9983702
Продолжительность: 76:09
Треклист:
01. King Antichrist
02. 666 Voices Inside
03. Attera Totus Sanctus
04. Godhate
05. Atrum Regina
06. Angel Flesh Impaled
07. Feed On The Mortals
08. Final Ritual
09. Atrum Regina (Instrumental)
10. Open The Gates (2005 Version)
11. The Arrival Of Satan's Empire (Live)
12. An Apprentice Of Satan (Live)
13. The Dawn No More Rises (Live)
14. The Secrets Of The Black Arts (Live)
15. Vobiscum Satanas (Live)
16. Ineffable King Of Darkness (Live)
Tracks 9-10: Bonus Tracks From Japanese Edition
Tracks 11-16: Live In South America 2003

Лог создания рипа

Exact Audio Copy V1.0 beta 3 from 29. August 2011
EAC extraction logfile from 22. February 2014, 14:45
Dark Funeral / Attera Totus Sanctus (2013 Reissue)
Used drive : HP DVD Writer 1170d Adapter: 2 ID: 0
Read mode : Secure
Utilize accurate stream : Yes
Defeat audio cache : Yes
Make use of C2 pointers : No
Read offset correction : 6
Overread into Lead-In and Lead-Out : No
Fill up missing offset samples with silence : Yes
Delete leading and trailing silent blocks : No
Null samples used in CRC calculations : Yes
Used interface : Native Win32 interface for Win NT & 2000
Used output format : User Defined Encoder
Selected bitrate : 1024 kBit/s
Quality : High
Add ID3 tag : No
Command line compressor : C:\Program Files\Exact Audio Copy\FLAC\FLAC.EXE
Additional command line options : -V -8 -T "Date=%year%" -T "Genre=%genre%" -T"COMMENT=Ripped by Ungern666" -8 -V %source%
TOC of the extracted CD
Track | Start | Length | Start sector | End sector
---------------------------------------------------------
1 | 0:00.00 | 4:39.64 | 0 | 20988
2 | 4:39.64 | 4:38.00 | 20989 | 41838
3 | 9:17.64 | 5:38.00 | 41839 | 67188
4 | 14:55.64 | 5:06.74 | 67189 | 90212
5 | 20:02.63 | 5:33.48 | 90213 | 115235
6 | 25:36.36 | 5:53.66 | 115236 | 141776
7 | 31:30.27 | 5:41.40 | 141777 | 167391
8 | 37:11.67 | 5:44.31 | 167392 | 193222
9 | 42:56.23 | 5:32.61 | 193223 | 218183
10 | 48:29.09 | 4:21.67 | 218184 | 237825
11 | 52:51.01 | 3:34.53 | 237826 | 253928
12 | 56:25.54 | 5:30.02 | 253929 | 278680
13 | 61:55.56 | 3:26.54 | 278681 | 294184
14 | 65:22.35 | 3:34.24 | 294185 | 310258
15 | 68:56.59 | 4:19.03 | 310259 | 329686
16 | 73:15.62 | 2:53.61 | 329687 | 342722
Range status and errors
Selected range
Filename C:\EAC\Ungern666\Dark Funeral - Attera Totus Sanctus (2013 Reissue).wav
Peak level 100.0 %
Extraction speed 6.0 X
Range quality 99.9 %
Test CRC 8CC4DD17
Copy CRC 8CC4DD17
Copy OK
No errors occurred
AccurateRip summary
Track 1 accurately ripped (confidence 3) [FEB0D0F3] (AR v2)
Track 2 accurately ripped (confidence 3) [2B899940] (AR v2)
Track 3 accurately ripped (confidence 3) [24AE89A5] (AR v2)
Track 4 accurately ripped (confidence 3) [862FEA10] (AR v2)
Track 5 accurately ripped (confidence 3) [69F8168E] (AR v2)
Track 6 accurately ripped (confidence 3) [98F45C0F] (AR v2)
Track 7 accurately ripped (confidence 3) [B2DFBA19] (AR v2)
Track 8 accurately ripped (confidence 3) [8746A6BA] (AR v2)
Track 9 accurately ripped (confidence 3) [A805D62E] (AR v2)
Track 10 accurately ripped (confidence 3) [D7F43B85] (AR v2)
Track 11 accurately ripped (confidence 3) [936610C7] (AR v2)
Track 12 accurately ripped (confidence 3) [106AE0E9] (AR v2)
Track 13 accurately ripped (confidence 3) [EC3C17FD] (AR v2)
Track 14 accurately ripped (confidence 3) [F6F7474C] (AR v2)
Track 15 accurately ripped (confidence 3) [EF5C6D71] (AR v2)
Track 16 accurately ripped (confidence 3) [89673821] (AR v2)
All tracks accurately ripped
End of status report
---- CUETools DB Plugin V2.1.5
[CTDB TOCID: rDAi7ABAaAdcEPzGlzkEm9UtvG0-] found
Submit result: rDAi7ABAaAdcEPzGlzkEm9UtvG0- has been confirmed
Track | CTDB Status
1 | (1/1) Accurately ripped
2 | (1/1) Accurately ripped
3 | (1/1) Accurately ripped
4 | (1/1) Accurately ripped
5 | (1/1) Accurately ripped
6 | (1/1) Accurately ripped
7 | (1/1) Accurately ripped
8 | (1/1) Accurately ripped
9 | (1/1) Accurately ripped
10 | (1/1) Accurately ripped
11 | (1/1) Accurately ripped
12 | (1/1) Accurately ripped
13 | (1/1) Accurately ripped
14 | (1/1) Accurately ripped
15 | (1/1) Accurately ripped
16 | (1/1) Accurately ripped
==== Log checksum E8AAFA16713E524806120FBAA2A396E493674F45D11F3106FC25210A8BD3AB26 ====

2009 (2013)-Angelus Exuro Pro Eternus

Номер по каталогу: 9983712
Продолжительность: 70:57
Треклист:
01. The End Of Human Race
02. The Birth Of The Vampiir
03. Stigmata
04. My Funeral
05. Angelus Exuro Pro Eternus
06. Demons Of Five
07. Declaration Of Hate
08. In My Dreams
09. My Latex Queen
10. King Antichrist (Live)
11. Diabolis Interium (Live)
12. Ravenna Strigoi Mortii (Live)
13. Open The Gates (Live)
14. Atrum Regina (Live)
Tracks 10-14: Live In Buenos Aires 2006

Лог создания рипа

Exact Audio Copy V1.0 beta 3 from 29. August 2011
EAC extraction logfile from 22. February 2014, 15:19
Dark Funeral / Angelus Exuro Pro Eternus (2013 Reissue)
Used drive : HP DVD Writer 1170d Adapter: 2 ID: 0
Read mode : Secure
Utilize accurate stream : Yes
Defeat audio cache : Yes
Make use of C2 pointers : No
Read offset correction : 6
Overread into Lead-In and Lead-Out : No
Fill up missing offset samples with silence : Yes
Delete leading and trailing silent blocks : No
Null samples used in CRC calculations : Yes
Used interface : Native Win32 interface for Win NT & 2000
Used output format : User Defined Encoder
Selected bitrate : 1024 kBit/s
Quality : High
Add ID3 tag : No
Command line compressor : C:\Program Files\Exact Audio Copy\FLAC\FLAC.EXE
Additional command line options : -V -8 -T "Date=%year%" -T "Genre=%genre%" -T"COMMENT=Ripped by Ungern666" -8 -V %source%
TOC of the extracted CD
Track | Start | Length | Start sector | End sector
---------------------------------------------------------
1 | 0:00.00 | 4:39.37 | 0 | 20961
2 | 4:39.37 | 4:42.00 | 20962 | 42111
3 | 9:21.37 | 5:07.28 | 42112 | 65164
4 | 14:28.65 | 5:32.73 | 65165 | 90137
5 | 20:01.63 | 5:00.00 | 90138 | 112637
6 | 25:01.63 | 4:45.55 | 112638 | 134067
7 | 29:47.43 | 5:22.07 | 134068 | 158224
8 | 35:09.50 | 6:26.58 | 158225 | 187232
9 | 41:36.33 | 5:21.41 | 187233 | 211348
10 | 46:57.74 | 5:53.46 | 211349 | 237869
11 | 52:51.45 | 4:06.03 | 237870 | 256322
12 | 56:57.48 | 3:50.50 | 256323 | 273622
13 | 60:48.23 | 4:01.74 | 273623 | 291771
14 | 64:50.22 | 6:06.69 | 291772 | 319290
Range status and errors
Selected range
Filename C:\EAC\Ungern666\Dark Funeral - Angelus Exuro Pro Eternus (2013 Reissue).wav
Peak level 99.6 %
Extraction speed 5.9 X
Range quality 99.9 %
Test CRC 9204EB73
Copy CRC 9204EB73
Copy OK
No errors occurred
AccurateRip summary
Track 1 accurately ripped (confidence 2) [5C832C3D] (AR v2)
Track 2 accurately ripped (confidence 2) [D605EF31] (AR v2)
Track 3 accurately ripped (confidence 2) [90FEFCC2] (AR v2)
Track 4 accurately ripped (confidence 2) [31DBA7B9] (AR v2)
Track 5 accurately ripped (confidence 2) [740C7C03] (AR v2)
Track 6 accurately ripped (confidence 2) [59193C78] (AR v2)
Track 7 accurately ripped (confidence 2) [1537733D] (AR v2)
Track 8 accurately ripped (confidence 2) [722D9F52] (AR v2)
Track 9 accurately ripped (confidence 2) [54C45F1F] (AR v2)
Track 10 accurately ripped (confidence 2) [0D28D49C] (AR v2)
Track 11 accurately ripped (confidence 2) [55A7ECA6] (AR v2)
Track 12 accurately ripped (confidence 2) [9FE67BB7] (AR v2)
Track 13 accurately ripped (confidence 2) [B4C3AA64] (AR v2)
Track 14 accurately ripped (confidence 2) [546B03E6] (AR v2)
All tracks accurately ripped
End of status report
---- CUETools DB Plugin V2.1.5
[CTDB TOCID: T28iCeagzaFVGW4Eyg0bXDn5TZ8-] found
Submit result: T28iCeagzaFVGW4Eyg0bXDn5TZ8- has been confirmed
Track | CTDB Status
1 | (1/1) Accurately ripped
2 | (1/1) Accurately ripped
3 | (1/1) Accurately ripped
4 | (1/1) Accurately ripped
5 | (1/1) Accurately ripped
6 | (1/1) Accurately ripped
7 | (1/1) Accurately ripped
8 | (1/1) Accurately ripped
9 | (1/1) Accurately ripped
10 | (1/1) Accurately ripped
11 | (1/1) Accurately ripped
12 | (1/1) Accurately ripped
13 | (1/1) Accurately ripped
14 | (1/1) Accurately ripped
==== Log checksum EE5A59692B62F300D6B9C8D5C4AAE5A90BADEF03BAD3D38DA5A78C99D392449A ====

Photo

[Profile]  [PM] 
Display posts:    
Reply to topic

Current time is: 29-Sep 19:09

All times are UTC + 2



You cannot post new topics in this forum
You cannot reply to topics in this forum
You cannot edit your posts in this forum
You cannot delete your posts in this forum
You cannot vote in polls in this forum
You cannot attach files in this forum
You cannot download files in this forum