(True Raw Black Metal) Ibex Throne - Total Inversion (2006), FLAC (image+.cue), lossless

Reply to topic
 
Author
Message

Rogvald ®

Gender: Male

Longevity: 11 years

Posts: 836

Reputation: 1006 [+] [-]

Rogvald · Post 18-Jan-2015 03:39

[Quote] 

Ibex Throne - Total Inversion
Жанр: True Raw Black Metal
Год издания диска: 2006
Издатель (лейбл): GoatowaRex [sdl022]
Аудиокодек: FLAC (*.flac)
Тип рипа: image+.cue
Битрейт аудио: lossless
Продолжительность: 55' 31"
Тип рипа: image+.cue, Test&Copy
Источник: Original CD + covers
Треклист:

1. Humanity Is Worthless
2. Crucified Whores (Of the White Light)
3. Insidious Wrath
4. I Fucking Kill
5. Regression to Darkness
6. Raped Imbrued Christians
7. The Throes of Battlelust
8. Ritual of Cursed Bloodlines

EAC

Exact Audio Copy V1.0 beta 1 from 15. November 2010
EAC extraction logfile from 9. June 2011, 15:06
Ibex Throne / Total Inversion
Used drive : HL-DT-STDVD-RAM GH22NP20 Adapter: 1 ID: 0
Read mode : Secure
Utilize accurate stream : Yes
Defeat audio cache : Yes
Make use of C2 pointers : No
Read offset correction : 102
Overread into Lead-In and Lead-Out : No
Fill up missing offset samples with silence : Yes
Delete leading and trailing silent blocks : No
Null samples used in CRC calculations : Yes
Used interface : Installed external ASPI interface
Used output format : User Defined Encoder
Selected bitrate : 768 kBit/s
Quality : High
Add ID3 tag : No
Command line compressor : C:\Program Files\FLAC\flac.exe
Additional command line options : -V -8 -T "artist=%a" -T "title=%t" -T "album=%g" -T "date=%y" -T "tracknumber=%n" -T "genre=%m" %s
TOC of the extracted CD
Track | Start | Length | Start sector | End sector
---------------------------------------------------------
1 | 0:00.00 | 5:22.31 | 0 | 24180
2 | 5:22.31 | 6:48.34 | 24181 | 54814
3 | 12:10.65 | 6:59.40 | 54815 | 86279
4 | 19:10.30 | 6:21.69 | 86280 | 114923
5 | 25:32.24 | 6:02.19 | 114924 | 142092
6 | 31:34.43 | 6:56.26 | 142093 | 173318
7 | 38:30.69 | 6:43.12 | 173319 | 203555
8 | 45:14.06 | 10:16.64 | 203556 | 249819
Range status and errors
Selected range
Filename D:\dedho\Ibex Throne - Total Inversion\Ibex Throne - Total Inversion.wav
Peak level 100.0 %
Extraction speed 0.5 X
Range quality 99.9 %
Test CRC C570E085
Copy CRC C570E085
Copy OK
No errors occurred
AccurateRip summary
Track 1 not present in database
Track 2 not present in database
Track 3 not present in database
Track 4 not present in database
Track 5 not present in database
Track 6 not present in database
Track 7 not present in database
Track 8 not present in database
None of the tracks are present in the AccurateRip database
End of status report
[Profile]  [PM] 
Display posts:    
Reply to topic

Current time is: 19-Sep 11:38

All times are UTC + 2



You cannot post new topics in this forum
You cannot reply to topics in this forum
You cannot edit your posts in this forum
You cannot delete your posts in this forum
You cannot vote in polls in this forum
You cannot attach files in this forum
You cannot download files in this forum