(Sympho Black Metal) Ancient - 7 CDs (1996, 1997, 1999, 2001, 2004), FLAC (image+.cue), lossless

Reply to topic
 
Author
Message

Rogvald ®

Gender: Male

Longevity: 11 years

Posts: 836

Reputation: 1006 [+] [-]

Rogvald · Post 18-Jan-2015 19:08

[Quote] 


Ancient - 7 CDs (1996, 1997, 1999, 2001, 2004)
Жанр: Sympho Black Metal
Страна происхождения: Norway
Аудио кодек: FLAC
Тип рипа: image+.cue
Битрейт аудио: lossless

The Cainian Chronicle (1996)

Производитель диска: Fono, Russia
Номер по каталогу: FO591CD
Продолжительность: 1:06:06
Трэклист:
01. Ponderous Moonlighting (2:23)
02. I: The Curse (4:48)
03. II: Lilith's Embrace (6:16)
04. III: Descipline of Caine; IV: Zillah and the Crone (5:53)
05. Al The Infernal Portal (Canto III) (7:05)
06. Cry Of Mariamne (3:03)
07. Prophecy Of Gehenna (4:04)
08. Song Of Kaiaphas (8:48)
09. Exu (2:52)
10. The Pagan Cycle (7:30)
11. Homage To Pan (13:25)

EAC log

Exact Audio Copy V0.99 prebeta 4 from 23. January 2008
EAC extraction logfile from 30. October 2008, 13:22
Ancient / The Cainian Chronicle
Used drive : TEAC CD-W540E Adapter: 0 ID: 0
Read mode : Secure
Utilize accurate stream : Yes
Defeat audio cache : Yes
Make use of C2 pointers : No
Read offset correction : 686
Overread into Lead-In and Lead-Out : No
Fill up missing offset samples with silence : Yes
Delete leading and trailing silent blocks : No
Null samples used in CRC calculations : No
Used interface : Native Win32 interface for Win NT & 2000
Used output format : User Defined Encoder
Selected bitrate : 1024 kBit/s
Quality : High
Add ID3 tag : Yes
Command line compressor : D:\Progs\ExactAudioCopy\Flac\flac.exe
Additional command line options : --best -T "ARTIST=%a" -T "TITLE=%t" -T "ALBUM=%g" -T "DATE=%y" -T "TRACKNUMBER=%n" -T "GENRE=%m" %s
TOC of the extracted CD
Track | Start | Length | Start sector | End sector
---------------------------------------------------------
1 | 0:00.00 | 2:23.05 | 0 | 10729
2 | 2:23.05 | 4:48.05 | 10730 | 32334
3 | 7:11.10 | 6:15.55 | 32335 | 60514
4 | 13:26.65 | 5:53.00 | 60515 | 86989
5 | 19:19.65 | 7:05.30 | 86990 | 118894
6 | 26:25.20 | 3:02.60 | 118895 | 132604
7 | 29:28.05 | 4:04.15 | 132605 | 150919
8 | 33:32.20 | 8:47.50 | 150920 | 190494
9 | 42:19.70 | 2:51.62 | 190495 | 203381
10 | 45:11.57 | 7:30.00 | 203382 | 237131
11 | 52:41.57 | 13:24.48 | 237132 | 297479
Range status and errors
Selected range
Filename W:\Help\Ancient - 1996 - The Cainian Chronicle\Ancient - 1996 - The Cainian Chronicle.wav
Peak level 100.0 %
Range quality 100.0 %
Copy CRC 50BEB9B7
Copy OK
No errors occurred
AccurateRip summary
Track 1 cannot be verified as accurate (confidence 2) [DF45FA3C], AccurateRip returned [1EE5ACFC]
Track 2 cannot be verified as accurate (confidence 2) [760641D7], AccurateRip returned [7854F62F]
Track 3 cannot be verified as accurate (confidence 2) [421E708D], AccurateRip returned [713317D6]
Track 4 cannot be verified as accurate (confidence 2) [924120D7], AccurateRip returned [D5B65896]
Track 5 cannot be verified as accurate (confidence 2) [078F0597], AccurateRip returned [68154457]
Track 6 cannot be verified as accurate (confidence 2) [2416AFC8], AccurateRip returned [14495684]
Track 7 cannot be verified as accurate (confidence 2) [556A2E10], AccurateRip returned [38AEF6BC]
Track 8 cannot be verified as accurate (confidence 2) [8AC7B484], AccurateRip returned [15B671B4]
Track 9 cannot be verified as accurate (confidence 2) [675F814B], AccurateRip returned [7C017D79]
Track 10 cannot be verified as accurate (confidence 2) [AE029EA1], AccurateRip returned [7BFA4533]
Track 11 cannot be verified as accurate (confidence 2) [3598920E], AccurateRip returned [EEA53762]
No tracks could be verified as accurate
You may have a different pressing from the one(s) in the database
End of status report

Mad Grandiose Bloodfiends (1997)

Производитель диска: Fono, Russia
Номер по каталогу: FO69CD
Продолжительность: 1:06:46
Трэклист:
01. Malkavian Twilight (0:40)
02. A Mad Blood Scenario (4:21)
03. The Draining (5:25)
04. Um Sonho Psycodelico (3:59)
05. Sleeping Princess Of The Arges (6:30)
06. Her Northern Majesty (5:50)
07. Blackeyes (7:20)
08. The Emerald Tablet (7:12)
09. Willothewisp (7:20)
10. Neptune (2:35)
11. 5 (4:08)
12. Hecate, My Love And Lust (6:03)
13. Vampirize Natasha (2:32)
14. Black Funeral (2:50)

EAC log

Exact Audio Copy V0.99 prebeta 4 from 23. January 2008
EAC extraction logfile from 21. December 2008, 16:38
Ancient / Mad Grandiose Bloodfiends
Used drive : TEAC CD-W540E Adapter: 0 ID: 0
Read mode : Secure
Utilize accurate stream : Yes
Defeat audio cache : Yes
Make use of C2 pointers : No
Read offset correction : 686
Overread into Lead-In and Lead-Out : No
Fill up missing offset samples with silence : Yes
Delete leading and trailing silent blocks : No
Null samples used in CRC calculations : No
Used interface : Native Win32 interface for Win NT & 2000
Used output format : User Defined Encoder
Selected bitrate : 1024 kBit/s
Quality : High
Add ID3 tag : No
Command line compressor : D:\Progs\ExactAudioCopy\Flac\flac.exe
Additional command line options : --best -T "ARTIST=%a" -T "TITLE=%t" -T "ALBUM=%g" -T "DATE=%y" -T "TRACKNUMBER=%n" -T "GENRE=%m" %s
TOC of the extracted CD
Track | Start | Length | Start sector | End sector
---------------------------------------------------------
1 | 0:00.00 | 0:39.67 | 0 | 2991
2 | 0:39.67 | 4:21.31 | 2992 | 22597
3 | 5:01.23 | 5:25.07 | 22598 | 46979
4 | 10:26.30 | 3:59.29 | 46980 | 64933
5 | 14:25.59 | 6:30.23 | 64934 | 94206
6 | 20:56.07 | 5:49.74 | 94207 | 120455
7 | 26:46.06 | 7:19.72 | 120456 | 153452
8 | 34:06.03 | 7:12.18 | 153453 | 185870
9 | 41:18.21 | 7:20.25 | 185871 | 218895
10 | 48:38.46 | 2:34.62 | 218896 | 230507
11 | 51:13.33 | 4:08.23 | 230508 | 249130
12 | 55:21.56 | 6:02.41 | 249131 | 276321
13 | 61:24.22 | 2:31.62 | 276322 | 287708
14 | 63:56.09 | 2:50.00 | 287709 | 300458
Range status and errors
Selected range
Filename E:\temp.mp3\!Help\Ancient97 - Mad Grandiose Bloodfiends\Ancient - 1997 - Mad Grandiose Bloodfiends.wav
Peak level 98.9 %
Range quality 100.0 %
Copy CRC 8BF44807
Copy OK
No errors occurred
AccurateRip summary
Track 1 accurately ripped (confidence 3) [84EED2EC]
Track 2 accurately ripped (confidence 3) [FA01F784]
Track 3 accurately ripped (confidence 3) [827DF5E0]
Track 4 accurately ripped (confidence 3) [30153917]
Track 5 accurately ripped (confidence 3) [03E3102C]
Track 6 accurately ripped (confidence 3) [9D66EFDA]
Track 7 accurately ripped (confidence 3) [D764EDBC]
Track 8 accurately ripped (confidence 3) [D64618E3]
Track 9 accurately ripped (confidence 3) [65E1A134]
Track 10 accurately ripped (confidence 3) [A3C38DA7]
Track 11 accurately ripped (confidence 3) [DD8D257D]
Track 12 accurately ripped (confidence 3) [F2A7B3DA]
Track 13 accurately ripped (confidence 3) [EE52975C]
Track 14 accurately ripped (confidence 3) [9D1EA4BF]
All tracks accurately ripped
End of status report

The Halls Of Eternity (1999)

Производитель диска: Fono, Russia
Номер по каталогу: FO594CD
Продолжительность: 1:01:30
Трэклист:
01. Cast Into The Unfathomed Deeps (1:56)
02. Born In Flames (3:59)
03. The Battle Of The Ancient Warriors (5:24)
04. A Woeful Summoning (7:01)
05. Cosmic Exile (4:29)
06. Spiritual Supremacy (5:12)
07. The Heritage (8:12)
08. I, Madman (6:04)
09. From Behind Comes The Sword (4:45)
10. The Halls Of Eternity (9:39)
11. Arrival (4:48)

EAC log

Exact Audio Copy V0.99 prebeta 4 from 23. January 2008
EAC extraction logfile from 31. October 2008, 9:08
Ancient / The Halls Of Eternity
Used drive : _NEC DVD_RW ND-4551A Adapter: 0 ID: 1
Read mode : Secure
Utilize accurate stream : Yes
Defeat audio cache : Yes
Make use of C2 pointers : No
Read offset correction : 48
Overread into Lead-In and Lead-Out : No
Fill up missing offset samples with silence : Yes
Delete leading and trailing silent blocks : No
Null samples used in CRC calculations : No
Used interface : Native Win32 interface for Win NT & 2000
Used output format : User Defined Encoder
Selected bitrate : 1024 kBit/s
Quality : High
Add ID3 tag : Yes
Command line compressor : D:\Progs\ExactAudioCopy\Flac\flac.exe
Additional command line options : --best -T "ARTIST=%a" -T "TITLE=%t" -T "ALBUM=%g" -T "DATE=%y" -T "TRACKNUMBER=%n" -T "GENRE=%m" %s
TOC of the extracted CD
Track | Start | Length | Start sector | End sector
---------------------------------------------------------
1 | 0:00.00 | 1:56.35 | 0 | 8734
2 | 1:56.35 | 3:59.06 | 8735 | 26665
3 | 5:55.41 | 5:24.21 | 26666 | 50986
4 | 11:19.62 | 7:00.67 | 50987 | 82553
5 | 18:20.54 | 4:28.59 | 82554 | 102712
6 | 22:49.38 | 5:11.73 | 102713 | 126110
7 | 28:01.36 | 8:12.20 | 126111 | 163030
8 | 36:13.56 | 6:04.00 | 163031 | 190330
9 | 42:17.56 | 4:45.34 | 190331 | 211739
10 | 47:03.15 | 9:38.54 | 211740 | 255143
11 | 56:41.69 | 4:48.36 | 255144 | 276779
Range status and errors
Selected range
Filename W:\Help\Ancient99 - The Halls Of Eternity\Ancient - 1999 - The Halls Of Eternity.wav
Peak level 98.8 %
Range quality 100.0 %
Copy CRC 952BD255
Copy OK
No errors occurred
AccurateRip summary
Track 1 not present in database
Track 2 cannot be verified as accurate (confidence 1) [60DAAF89], AccurateRip returned [C60E08BB]
Track 3 cannot be verified as accurate (confidence 1) [C6BD5E0F], AccurateRip returned [0F7EF638]
Track 4 cannot be verified as accurate (confidence 1) [0AC080E5], AccurateRip returned [E51DBA0A]
Track 5 cannot be verified as accurate (confidence 1) [EC63FF2F], AccurateRip returned [3EC78A84]
Track 6 cannot be verified as accurate (confidence 1) [8CF1EE9E], AccurateRip returned [3FE8C03C]
Track 7 cannot be verified as accurate (confidence 1) [79C67B41], AccurateRip returned [F2A12BAC]
Track 8 cannot be verified as accurate (confidence 1) [DD8C6FFB], AccurateRip returned [686AE3A9]
Track 9 cannot be verified as accurate (confidence 1) [68730145], AccurateRip returned [4DA18B88]
Track 10 cannot be verified as accurate (confidence 1) [AA556566], AccurateRip returned [DD69B437]
Track 11 not present in database
9 track(s) could not be verified as accurate
2 track(s) not present in the AccurateRip database
No tracks could be verified as accurate
You may have a different pressing from the one(s) in the database
End of status report

Det Glemte Riket (1999)

Производитель диска: FONO, Russia
Номер по каталогу: FO245CD
Продолжительность: 54:40
Трэклист:
01. Trolltaar (6:19)
02. Nattens Skjonnhet (8:17)
03. Eerily Howling Winds (3:50)
04. Det Glemte Riket (6:54)
05. Huldra Dans (5:55)
06. Paa Evig Vandring (7:57)
07. Fjellets Hemmelighet (5:48)
08. Algol (4:26)
09. Sweet Leaf (5:14)

EAC log

Exact Audio Copy V0.99 prebeta 4 from 23. January 2008
EAC extraction logfile from 21. December 2008, 17:37
Ancient / Det Glemte Riket
Used drive : TEAC CD-W540E Adapter: 0 ID: 0
Read mode : Secure
Utilize accurate stream : Yes
Defeat audio cache : Yes
Make use of C2 pointers : No
Read offset correction : 686
Overread into Lead-In and Lead-Out : No
Fill up missing offset samples with silence : Yes
Delete leading and trailing silent blocks : No
Null samples used in CRC calculations : No
Used interface : Native Win32 interface for Win NT & 2000
Used output format : User Defined Encoder
Selected bitrate : 1024 kBit/s
Quality : High
Add ID3 tag : No
Command line compressor : D:\Progs\ExactAudioCopy\Flac\flac.exe
Additional command line options : --best -T "ARTIST=%a" -T "TITLE=%t" -T "ALBUM=%g" -T "DATE=%y" -T "TRACKNUMBER=%n" -T "GENRE=%m" %s
TOC of the extracted CD
Track | Start | Length | Start sector | End sector
---------------------------------------------------------
1 | 0:00.00 | 6:18.42 | 0 | 28391
2 | 6:18.42 | 8:17.34 | 28392 | 65700
3 | 14:36.01 | 3:50.32 | 65701 | 82982
4 | 18:26.33 | 6:54.11 | 82983 | 114043
5 | 25:20.44 | 5:55.08 | 114044 | 140676
6 | 31:15.52 | 7:56.66 | 140677 | 176442
7 | 39:12.43 | 5:47.68 | 176443 | 202535
8 | 45:00.36 | 4:25.50 | 202536 | 222460
9 | 49:26.11 | 5:13.72 | 222461 | 246007
Range status and errors
Selected range
Filename E:\temp.mp3\!Help\Ancient99 - Det Glemte Riket\Ancient - 1999 - Det Glemte Riket.wav
Peak level 100.0 %
Range quality 99.9 %
Copy CRC E1DE70A8
Copy OK
No errors occurred
AccurateRip summary
Track 1 not present in database
Track 2 not present in database
Track 3 not present in database
Track 4 not present in database
Track 5 not present in database
Track 6 not present in database
Track 7 not present in database
Track 8 not present in database
Track 9 not present in database
None of the tracks are present in the AccurateRip database
End of status report

God Loves The Dead (2001)

Производитель диска: FONO, Russia
Номер по каталогу: FO38CD
Продолжительность: 27:59
Трэклист:
01. God Loves The Dead (3:50)
02. Trolltaar - 2000 (6:40)
03. Powerslave (8:01)
04. The Draining - Remix (5:28)
05. Um Sonho Psycodelico - Remix (4:00)
06. God Loves The Dead Video
07. Um Sonho Psycodelico Video

EAC log

Exact Audio Copy V0.99 prebeta 4 from 23. January 2008
EAC extraction logfile from 21. December 2008, 17:11
Ancient / God Loves The Dead
Used drive : TEAC CD-W540E Adapter: 0 ID: 0
Read mode : Secure
Utilize accurate stream : Yes
Defeat audio cache : Yes
Make use of C2 pointers : No
Read offset correction : 686
Overread into Lead-In and Lead-Out : No
Fill up missing offset samples with silence : Yes
Delete leading and trailing silent blocks : No
Null samples used in CRC calculations : No
Used interface : Native Win32 interface for Win NT & 2000
Used output format : User Defined Encoder
Selected bitrate : 1024 kBit/s
Quality : High
Add ID3 tag : No
Command line compressor : D:\Progs\ExactAudioCopy\Flac\flac.exe
Additional command line options : --best -T "ARTIST=%a" -T "TITLE=%t" -T "ALBUM=%g" -T "DATE=%y" -T "TRACKNUMBER=%n" -T "GENRE=%m" %s
TOC of the extracted CD
Track | Start | Length | Start sector | End sector
---------------------------------------------------------
1 | 0:00.00 | 3:49.57 | 0 | 17231
2 | 3:49.57 | 6:39.67 | 17232 | 47223
3 | 10:29.49 | 8:00.67 | 47224 | 83290
4 | 18:30.41 | 5:28.09 | 83291 | 107899
5 | 23:58.50 | 3:59.67 | 107900 | 125891
6 | 30:30.42 | 9:02.24 | 137292 | 177965
Range status and errors
Selected range
Filename E:\temp.mp3\!Help\Ancient01 - God Loves The Dead\Ancient - 2001 - God Loves The Dead.wav
Peak level 100.0 %
Range quality 100.0 %
Copy CRC 7CB9A01C
Copy OK
No errors occurred
AccurateRip summary
Track 1 not present in database
Track 2 not present in database
Track 3 not present in database
Track 4 not present in database
Track 5 not present in database
None of the tracks are present in the AccurateRip database
End of status report

Proxima Centauri (2001)

Производитель диска: Fono, Russia
Номер по каталогу: FO100CD
Продолжительность: 55:02
Трэклист:
01. A Lurking Threat (0:39)
02. Proxima Centauri (4:37)
03. The Ancient Horadrim (4:50)
04. In The Abyss Of The Cursed Souls (5:58)
05. The Witch (4:14)
06. Apophis (2:55)
07. Satan's Children (5:30)
08. Beyond The Realms Of Insanity (6:46)
09. Audrina, My Sweet (2:47)
10. On Blackest Wings (3:15)
11. Eyes Of The Dead (4:00)
12. Incarnating The Malignant Deity (9:32)

EAC log

Exact Audio Copy V0.99 prebeta 4 from 23. January 2008
EAC extraction logfile from 21. December 2008, 16:47
Ancient / Proxima Centauri
Used drive : TEAC CD-W540E Adapter: 0 ID: 0
Read mode : Secure
Utilize accurate stream : Yes
Defeat audio cache : Yes
Make use of C2 pointers : No
Read offset correction : 686
Overread into Lead-In and Lead-Out : No
Fill up missing offset samples with silence : Yes
Delete leading and trailing silent blocks : No
Null samples used in CRC calculations : No
Used interface : Native Win32 interface for Win NT & 2000
Used output format : User Defined Encoder
Selected bitrate : 1024 kBit/s
Quality : High
Add ID3 tag : No
Command line compressor : D:\Progs\ExactAudioCopy\Flac\flac.exe
Additional command line options : --best -T "ARTIST=%a" -T "TITLE=%t" -T "ALBUM=%g" -T "DATE=%y" -T "TRACKNUMBER=%n" -T "GENRE=%m" %s
TOC of the extracted CD
Track | Start | Length | Start sector | End sector
---------------------------------------------------------
1 | 0:00.00 | 0:38.60 | 0 | 2909
2 | 0:38.60 | 4:36.46 | 2910 | 23655
3 | 5:15.31 | 4:50.20 | 23656 | 45425
4 | 10:05.51 | 5:57.53 | 45426 | 72253
5 | 16:03.29 | 4:14.15 | 72254 | 91318
6 | 20:17.44 | 2:54.49 | 91319 | 104417
7 | 23:12.18 | 5:29.57 | 104418 | 129149
8 | 28:42.00 | 6:45.72 | 129150 | 159596
9 | 35:27.72 | 2:46.38 | 159597 | 172084
10 | 38:14.35 | 3:15.16 | 172085 | 186725
11 | 41:29.51 | 4:00.32 | 186726 | 204757
12 | 45:30.08 | 9:31.63 | 204758 | 247645
Range status and errors
Selected range
Filename E:\temp.mp3\!Help\Ancient01 - Proxima Centauri\Ancient - 2001 - Proxima Centauri.wav
Peak level 100.0 %
Range quality 100.0 %
Copy CRC 6A7DD849
Copy OK
No errors occurred
AccurateRip summary
Track 1 accurately ripped (confidence 1) [BE9184E3]
Track 2 accurately ripped (confidence 1) [D7EDDD94]
Track 3 accurately ripped (confidence 1) [9FBB4B33]
Track 4 accurately ripped (confidence 1) [F9453BB9]
Track 5 accurately ripped (confidence 1) [788D95E0]
Track 6 accurately ripped (confidence 1) [3C4594CC]
Track 7 accurately ripped (confidence 1) [40F58180]
Track 8 accurately ripped (confidence 1) [FA90D0AA]
Track 9 accurately ripped (confidence 1) [7946D2A3]
Track 10 accurately ripped (confidence 1) [F8036F32]
Track 11 accurately ripped (confidence 1) [635F0527]
Track 12 accurately ripped (confidence 1) [42702A95]
All tracks accurately ripped
End of status report

Night Visit (2004)

Производитель диска: FONO, Russia
Номер по каталогу: FO383CD
Продолжительность: 49:46
Трэклист:
01. Envision The Beast (6:51)
02. Rape The Children Of Abel (5:26)
03. Horroble (3:51)
04. Night Visit (5:07)
05. Lycanthropy (4:38)
06. Night Of The Stygian Souls (5:42)
07. Fuel The Flames (4:47)
08. The Truth Unveiled (7:41)
09. The Arctic Mirage (2:34)
10. Out In The Haunted Woods (3:09)
11. Night Visit Video

EAC log

Exact Audio Copy V0.99 prebeta 4 from 23. January 2008
EAC extraction logfile from 21. December 2008, 16:58
Ancient / Night Visit
Used drive : TEAC CD-W540E Adapter: 0 ID: 0
Read mode : Secure
Utilize accurate stream : Yes
Defeat audio cache : Yes
Make use of C2 pointers : No
Read offset correction : 686
Overread into Lead-In and Lead-Out : No
Fill up missing offset samples with silence : Yes
Delete leading and trailing silent blocks : No
Null samples used in CRC calculations : No
Used interface : Native Win32 interface for Win NT & 2000
Used output format : User Defined Encoder
Selected bitrate : 1024 kBit/s
Quality : High
Add ID3 tag : No
Command line compressor : D:\Progs\ExactAudioCopy\Flac\flac.exe
Additional command line options : --best -T "ARTIST=%a" -T "TITLE=%t" -T "ALBUM=%g" -T "DATE=%y" -T "TRACKNUMBER=%n" -T "GENRE=%m" %s
TOC of the extracted CD
Track | Start | Length | Start sector | End sector
---------------------------------------------------------
1 | 0:00.00 | 6:50.69 | 0 | 30818
2 | 6:50.69 | 5:25.54 | 30819 | 55247
3 | 12:16.48 | 3:51.26 | 55248 | 72598
4 | 16:07.74 | 5:07.17 | 72599 | 95640
5 | 21:15.16 | 4:38.16 | 95641 | 116506
6 | 25:53.32 | 5:42.21 | 116507 | 142177
7 | 31:35.53 | 4:46.72 | 142178 | 163699
8 | 36:22.50 | 7:40.41 | 163700 | 198240
9 | 44:03.16 | 2:34.34 | 198241 | 209824
10 | 46:37.50 | 3:08.39 | 209825 | 223963
11 | 52:18.14 | 22:35.39 | 235364 | 337027
Range status and errors
Selected range
Filename E:\temp.mp3\!Help\Ancient04 - Night Visit\Ancient - 2004 - Night Visit.wav
Peak level 100.0 %
Range quality 100.0 %
Copy CRC 1604A4E5
Copy OK
No errors occurred
AccurateRip summary
Track 1 not present in database
Track 2 not present in database
Track 3 not present in database
Track 4 not present in database
Track 5 not present in database
Track 6 not present in database
Track 7 not present in database
Track 8 not present in database
Track 9 not present in database
Track 10 not present in database
None of the tracks are present in the AccurateRip database
End of status report
[Profile]  [PM] 
Display posts:    
Reply to topic

Current time is: 20-Sep 21:38

All times are UTC + 2



You cannot post new topics in this forum
You cannot reply to topics in this forum
You cannot edit your posts in this forum
You cannot delete your posts in this forum
You cannot vote in polls in this forum
You cannot attach files in this forum
You cannot download files in this forum