(Symphonic Black Metal) [CD] Dimmu Borgir - For All Tid (Reissue 1999) (Japanese CD) (1994), FLAC (image+.cue), lossless

Reply to topic
 
Author
Message

Rogvald ®

Gender: Male

Longevity: 11 years

Posts: 836

Reputation: 1006 [+] [-]

Rogvald · Post 18-Jan-2015 23:38

[Quote] 

Dimmu Borgir / For All Tid (Reissue 1999) (Japanese CD)
Жанр: Symphonic Black Metal
Носитель: CD
Страна-производитель диска: Япония
Год издания: 1994
Издатель (лейбл): Avalon
Номер по каталогу: MICP-10150
Страна: Норвегия
Аудиокодек: FLAC (*.flac)
Тип рипа: image+.cue
Битрейт аудио: lossless
Продолжительность: 01:09:18
Источник (релизер): Собственный фирменный диск
Наличие сканов в содержимом раздачи: да
Треклист:
1 Det Nye Riket 5:04
2 Under Korpens Vinger 5:59
3 Over Bleknede Blåner Til Dommedag 4:05
4 Stien 2:00
5 Glittertind 5:15
6 For All Tid 5:51
7 Hunnerkongens Sorgsvarte Ferd Over Steppene 3:21
8 Raabjørn Speiler Draugheimens Skodde 5:01
9 Den Gjemte Sannhets Hersker 6:20
10 Inn I Evighetens Mørke Part 1 5:25
11 Inn I Evighetens Mørke Part 2 2:09
Japanese Bonus Tracks:
12 Spellbound 3:59
13 Tormentor Of Christian Soul 4:21
14 Master Of Disharmony 5:36
15 Metal Heart

Лог создания рипа

Exact Audio Copy V1.0 beta 3 from 29. August 2011
EAC extraction logfile from 9. July 2014, 21:45
DIMMU BORGIR / For All Tid (Reissue 1999) (Japanese CD)
Used drive : Optiarc DVD RW AD-7260S Adapter: 1 ID: 1
Read mode : Secure
Utilize accurate stream : Yes
Defeat audio cache : Yes
Make use of C2 pointers : No
Read offset correction : 48
Overread into Lead-In and Lead-Out : No
Fill up missing offset samples with silence : Yes
Delete leading and trailing silent blocks : No
Null samples used in CRC calculations : Yes
Used interface : Native Win32 interface for Win NT & 2000
Used output format : Internal WAV Routines
Sample format : 44.100 Hz; 16 Bit; Stereo
TOC of the extracted CD
Track | Start | Length | Start sector | End sector
---------------------------------------------------------
1 | 0:00.00 | 5:04.15 | 0 | 22814
2 | 5:04.15 | 5:59.57 | 22815 | 49796
3 | 11:03.72 | 4:05.23 | 49797 | 68194
4 | 15:09.20 | 2:00.32 | 68195 | 77226
5 | 17:09.52 | 5:15.13 | 77227 | 100864
6 | 22:24.65 | 5:51.45 | 100865 | 127234
7 | 28:16.35 | 3:21.72 | 127235 | 142381
8 | 31:38.32 | 5:01.28 | 142382 | 164984
9 | 36:39.60 | 6:20.10 | 164985 | 193494
10 | 42:59.70 | 5:25.10 | 193495 | 217879
11 | 48:25.05 | 2:14.18 | 217880 | 227947
12 | 50:39.23 | 3:59.67 | 227948 | 245939
13 | 54:39.15 | 4:21.35 | 245940 | 265549
14 | 59:00.50 | 5:36.16 | 265550 | 290765
15 | 64:36.66 | 4:41.00 | 290766 | 311840
Range status and errors
Selected range
Filename C:\Мои документы\Speedwolf - 2011 - Ride With Death\DIMMU BORGIR - 1994 - For All Tid (Reissue 1999) (Japanese CD).wav
Peak level 100.0 %
Extraction speed 4.3 X
Range quality 100.0 %
Test CRC 0E42D7D9
Copy CRC 0E42D7D9
Copy OK
No errors occurred
AccurateRip summary
Track 1 not present in database
Track 2 not present in database
Track 3 not present in database
Track 4 not present in database
Track 5 not present in database
Track 6 not present in database
Track 7 not present in database
Track 8 not present in database
Track 9 not present in database
Track 10 not present in database
Track 11 not present in database
Track 12 not present in database
Track 13 not present in database
Track 14 not present in database
Track 15 not present in database
None of the tracks are present in the AccurateRip database
End of status report
---- CUETools DB Plugin V2.1.4
[CTDB TOCID: aHAxootN8Zh5VpUd2c.rcxOVOPE-] disk not present in database
Submit result: aHAxootN8Zh5VpUd2c.rcxOVOPE- has been uploaded
==== Log checksum 119A1DDBDDF904C73ED7B2A7F5B3749F5625F07BD3270463A98AD4487EB57BB5 ====
[Profile]  [PM] 
Display posts:    
Reply to topic

Current time is: 19-Sep 10:28

All times are UTC + 2



You cannot post new topics in this forum
You cannot reply to topics in this forum
You cannot edit your posts in this forum
You cannot delete your posts in this forum
You cannot vote in polls in this forum
You cannot attach files in this forum
You cannot download files in this forum