(Black Metal) Dark Funeral - Дискография (Discography) (1994-2009), FLAC (image+.cue), FLAC (tracks+.cue), lossless

Reply to topic
 
Author
Message

Rogvald ®

Gender: Male

Longevity: 11 years

Posts: 836

Reputation: 1006 [+] [-]

Rogvald · Post 22-Feb-2015 23:12

[Quote] 

Dark Funeral - Дискография
Исполнитель: Dark Funeral
Жанр: Black Metal, Melodic Black Metal
Дата выпуска: 1994 - 2013
Страна исполнителя: Sweden
Формат: FLAC (image+cue), FLAC (tracks+cue)
Битрейт: lossless
Продолжительность: 09:57:18
Наличие сканов: Да, кроме Attera totus sanctus (reissue 2013); In the sign (очень низкое качество)
Источник: MMT, what cd - см. спойлеры

1994 - Dark Funeral (EP)

Страна-производитель диска: Sweden
Издатель (лейбл): Hellspawn Records
Номер по каталогу: HELL001
Формат: FLAC (image+cue)
Продолжительность: 00:16:28
Источник: MMT, atanbes
Наличие сканов: да, но низкое разрешение
Треклист:
01. Open the gates [00:04:33]
02. Shadows over transylvania [00:04:21]
03. My dark desires [00:03:51]
04. In the sign of the horns [00:03:42]

Отчёт EAC

EAC extraction logfile from 3. September 2005, 23:56 for CD
Dark Funeral / Dark Funeral MCD
Used drive : HL-DT-STDVD-ROM GDR8162B Adapter: 0 ID: 1
Read mode : Secure with NO C2, accurate stream, disable cache
Read offset correction : 102
Overread into Lead-In and Lead-Out : No
Used output format : C:\Archivos de programa\Exact Audio Copy\MAC.EXE (Monkey's Audio Lossless Encoder)
High Lossless Compression
Additional command line options : -
Other options :
Fill up missing offset samples with silence : Yes
Delete leading and trailing silent blocks : No
Native Win32 interface for Win NT & 2000
Range status and errors
Selected range
Filename C:\Documents and Settings\usuario\Mis documentos\My Music\Dark Funeral - Dark Funeral.wav
Peak level 100.0 %
Range quality 100.0 %
CRC 7E4AD069
Copy OK
No errors occured
End of status report

1996 - The secrets of the black arts

Страна-производитель диска: Sweden
Издатель (лейбл): Death Records
Номер по каталогу: 3984-14121-2
Формат: FLAC (image+cue)
Продолжительность: 00:40:49
Источник: MMT, Barbarroja
Наличие сканов: да, HQ + сканы от Russian edition с буклетом, full, HQ
Треклист:
01. The dark age has arrived [00:00:16]
02. The secrets of the black arts [00:03:41]
03. My dark desires [00:03:46]
04. The dawn no more rises [00:03:58]
05. When angels forever die [00:04:06]
06. The fire eternal [00:03:54]
07. Satan's mayhem [00:04:53]
08. Shadows over transylvania [00:03:41]
09. Bloodfrozen [00:04:20]
10. Satanic blood [00:02:11]
11. Dark are the path to eternity (A summoning nocturnal) [00:05:59]

Отчёт EAC

EAC extraction logfile from 21. March 2008, 14:45 for CD
DARK FUNERAL / THE SECRETS OF THE BLACK ARTS
Used drive : HL-DT-STDVD-ROM GDR8164B Adapter: 0 ID: 3
Read mode : Secure with NO C2, accurate stream, disable cache
Read offset correction : 102
Overread into Lead-In and Lead-Out : No
Used output format : Internal WAV Routines
44.100 Hz; 16 Bit; Stereo
Other options :
Fill up missing offset samples with silence : Yes
Delete leading and trailing silent blocks : No
Native Win32 interface for Win NT & 2000
Range status and errors
Selected range
Filename D:\RIPEOSMM\DARK FUNERAL_The Secrets Of the Black Arts\DARK FUNERAL_The Secrets Of The Black Arts.wav
Peak level 96.9 %
Range quality 99.9 %
CRC 33F4CBD0
Copy OK
No errors occured
End of status report

1996 - The secrets of the black arts (2007 remastered)

Страна-производитель диска: Sweden
Издатель (лейбл): Dark Funeral
Номер по каталогу: DF001
Продолжительность: 01:12:19
Источник: MMT, SixSixSixten
Наличие сканов: да, full, HQ
Треклист:
CD1:
01. The dark age has arrived [00:00:16]
02. The secrets of the black arts [00:03:40]
03. My dark desires [00:03:46]
04. The dawn no more rises [00:03:57]
05. When angels forever die [00:04:05]
06. The fire eternal [00:03:53]
07. Satan's mayhem [00:04:52]
08. Shadows over transylvania [00:03:40]
09. Bloodfrozen [00:04:19]
10. Satanic blood [00:02:11]
11. Dark are the path to eternity (A summoning nocturnal) [00:05:55]
CD2:
01. Shadows over transylvania [00:03:37]
02. The dawn no more rises [00:03:38]
03. The secrets of the black arts [00:03:25]
04. Satans mayhem [00:04:47]
05. Bloodfrozen [00:03:35]
06. My dark desires [00:03:21]
07. Dark are the part to eternity (A summoning nocturnal) [00:05:38]
08. The fire eternal [00:03:36]
Originally recorded at Dan Swanö's Unisound Studios but the band did not like the sound so it was re-recorded at Peter Tägtgren's The Abyss.
The 2007 Regain Records reissue comes with a bonus disc containing the original recording of the album at Unisound Studios.

Отчёт EAC CD1

Exact Audio Copy V0.99 prebeta 4 from 23. January 2008
EAC extraction logfile from 1. August 2008, 11:05
Dark Funeral / The Secrets Of The Black Arts (Remastered)
Used drive : TSSTcorpCD/DVDW SH-S183A Adapter: 1 ID: 0
Read mode : Secure
Utilize accurate stream : Yes
Defeat audio cache : Yes
Make use of C2 pointers : No
Read offset correction : 6
Overread into Lead-In and Lead-Out : No
Fill up missing offset samples with silence : Yes
Delete leading and trailing silent blocks : No
Null samples used in CRC calculations : Yes
Used interface : Installed external ASPI interface
Used output format : User Defined Encoder
Selected bitrate : 32 kBit/s
Quality : High
Add ID3 tag : Yes
Command line compressor : C:\Program\Exact Audio Copy\Flac\bin\flac.exe
Additional command line options : -V -6 -T "artist=%a" -T "title=%t" -T "album=%g" -T "date=%y" -T "tracknumber=%n"
-T "genre=%m" %s
TOC of the extracted CD
Track | Start | Length | Start sector | End sector
---------------------------------------------------------
1 | 0:00.00 | 0:16.09 | 0 | 1208
2 | 0:16.09 | 3:41.32 | 1209 | 17815
3 | 3:57.41 | 3:47.00 | 17816 | 34840
4 | 7:44.41 | 3:58.02 | 34841 | 52692
5 | 11:42.43 | 4:06.60 | 52693 | 71202
6 | 15:49.28 | 3:54.06 | 71203 | 88758
7 | 19:43.34 | 4:53.40 | 88759 | 110773
8 | 24:36.74 | 3:41.31 | 110774 | 127379
9 | 28:18.30 | 4:20.07 | 127380 | 146886
10 | 32:38.37 | 2:11.49 | 146887 | 156760
11 | 34:50.11 | 5:56.00 | 156761 | 183460
Range status and errors
Selected range
Filename E:\Dark Funeral - The Secrets Of The Black Arts (Remastered).wav
Peak level 100.0 %
Range quality 100.0 %
Copy CRC 032CBA03
Copy OK
No errors occurred
End of status report

Отчёт EAC CD2

Exact Audio Copy V0.99 prebeta 4 from 23. January 2008
EAC extraction logfile from 1. August 2008, 11:17
Dark Funeral / The Secrets Of The Black Arts (Bonus Disc)
Used drive : TSSTcorpCD/DVDW SH-S183A Adapter: 1 ID: 0
Read mode : Secure
Utilize accurate stream : Yes
Defeat audio cache : Yes
Make use of C2 pointers : No
Read offset correction : 6
Overread into Lead-In and Lead-Out : No
Fill up missing offset samples with silence : Yes
Delete leading and trailing silent blocks : No
Null samples used in CRC calculations : Yes
Used interface : Installed external ASPI interface
Used output format : User Defined Encoder
Selected bitrate : 32 kBit/s
Quality : High
Add ID3 tag : Yes
Command line compressor : C:\Program\Exact Audio Copy\Flac\bin\flac.exe
Additional command line options : -V -6 -T "artist=%a" -T "title=%t" -T "album=%g" -T "date=%y" -T "tracknumber=%n"
-T "genre=%m" %s
TOC of the extracted CD
Track | Start | Length | Start sector | End sector
---------------------------------------------------------
1 | 0:00.00 | 3:39.10 | 0 | 16434
2 | 3:39.10 | 3:40.11 | 16435 | 32945
3 | 7:19.21 | 3:26.39 | 32946 | 48434
4 | 10:45.60 | 4:48.64 | 48435 | 70098
5 | 15:34.49 | 3:35.43 | 70099 | 86266
6 | 19:10.17 | 3:22.47 | 86267 | 101463
7 | 22:32.64 | 5:39.30 | 101464 | 126918
8 | 28:12.19 | 3:37.26 | 126919 | 143219
Range status and errors
Selected range
Filename E:\Dark Funeral - The Secrets Of The Black Arts (Bonus Disc).wav
Peak level 100.0 %
Range quality 100.0 %
Copy CRC 4F6C9E14
Copy OK
No errors occurred
End of status report
End of status report

1998 - Vobiscum Satanas

Страна-производитель диска: Sweden
Издатель (лейбл): No Fashion Records
Номер по каталогу: NFR027
Формат: FLAC (tracks+cue)
Продолжительность: 00:35:06
Источник: what cd, waterbreath
Наличие сканов: да, full, HQ, с MMT
Треклист:
01. Ravenna strigoi mortii [00:04:27]
02. Enriched by evil [00:04:43]
03. Thy legions come [00:04:13]
04. Evil prevail [00:04:28]
05. Slava Satan [00:03:58]
06. The black winged horde [00:04:37]
07. Vobiscum Satanas [00:05:00]
08. Ineffable king of darkness [00:03:38]

Отчёт EAC

Exact Audio Copy V0.99 prebeta 5 from 4. May 2009
EAC extraction logfile from 16. August 2010, 2:57
Dark Funeral / Vobiscum Satanas
Used drive : TSSTcorpCDDVDW SH-S223C Adapter: 3 ID: 1
Read mode : Secure
Utilize accurate stream : Yes
Defeat audio cache : Yes
Make use of C2 pointers : No
Read offset correction : 697
Overread into Lead-In and Lead-Out : No
Fill up missing offset samples with silence : Yes
Delete leading and trailing silent blocks : No
Null samples used in CRC calculations : Yes
Used interface : Native Win32 interface for Win NT & 2000
Gap handling : Appended to previous track
Used output format : User Defined Encoder
Selected bitrate : 192 kBit/s
Quality : High
Add ID3 tag : No
Command line compressor : C:\Program Files (x86)\foobar2000\components\flac.exe
Additional command line options : -8 -V -T "ARTIST=%a" -T "TITLE=%t" -T "ALBUM=%g" -T "DATE=%y" -T "TRACKNUMBER=%n"
-T "GENRE=%m" %s
TOC of the extracted CD
Track | Start | Length | Start sector | End sector
---------------------------------------------------------
1 | 0:00.00 | 4:27.20 | 0 | 20044
2 | 4:27.20 | 4:43.00 | 20045 | 41269
3 | 9:10.20 | 4:13.20 | 41270 | 60264
4 | 13:23.40 | 4:28.25 | 60265 | 80389
5 | 17:51.65 | 3:58.70 | 80390 | 98309
6 | 21:50.60 | 4:37.25 | 98310 | 119109
7 | 26:28.10 | 5:00.22 | 119110 | 141631
8 | 31:28.32 | 3:38.38 | 141632 | 158019
Track 1
Filename F:\FLACRIPS\Dark Funeral - 1998 - Vobiscum Satanas\01 - Dark Funeral - Ravenna Strigoi Mortii.wav
Pre-gap length 0:00:02.00
Peak level 89.3 %
Track quality 100.0 %
Test CRC 686C1269
Copy CRC 686C1269
Accurately ripped (confidence 24) [4D6921D1]
Copy OK
Track 2
Filename F:\FLACRIPS\Dark Funeral - 1998 - Vobiscum Satanas\02 - Dark Funeral - Enriched By Evil.wav
Pre-gap length 0:00:02.35
Peak level 89.3 %
Track quality 100.0 %
Test CRC 9E2C320F
Copy CRC 9E2C320F
Accurately ripped (confidence 24) [362A9791]
Copy OK
Track 3
Filename F:\FLACRIPS\Dark Funeral - 1998 - Vobiscum Satanas\03 - Dark Funeral - Thy Legions Come.wav
Pre-gap length 0:00:02.73
Peak level 89.3 %
Track quality 100.0 %
Test CRC E24AADFA
Copy CRC E24AADFA
Accurately ripped (confidence 24) [161FDAAD]
Copy OK
Track 4
Filename F:\FLACRIPS\Dark Funeral - 1998 - Vobiscum Satanas\04 - Dark Funeral - Evil Prevail.wav
Pre-gap length 0:00:02.25
Peak level 89.3 %
Track quality 100.0 %
Test CRC D05C13B8
Copy CRC D05C13B8
Accurately ripped (confidence 24) [3662E73F]
Copy OK
Track 5
Filename F:\FLACRIPS\Dark Funeral - 1998 - Vobiscum Satanas\05 - Dark Funeral - Slava Satan.wav
Pre-gap length 0:00:01.03
Peak level 89.3 %
Track quality 100.0 %
Test CRC 967D1D56
Copy CRC 967D1D56
Accurately ripped (confidence 24) [EBBD78D0]
Copy OK
Track 6
Filename F:\FLACRIPS\Dark Funeral - 1998 - Vobiscum Satanas\06 - Dark Funeral - The Black Winged Horde.wav
Pre-gap length 0:00:03.00
Peak level 89.3 %
Track quality 100.0 %
Test CRC 23C77E42
Copy CRC 23C77E42
Accurately ripped (confidence 24) [6785B5C5]
Copy OK
Track 7
Filename F:\FLACRIPS\Dark Funeral - 1998 - Vobiscum Satanas\07 - Dark Funeral - Vobiscum Satanas.wav
Pre-gap length 0:00:02.18
Peak level 89.3 %
Track quality 100.0 %
Test CRC 19532CFD
Copy CRC 19532CFD
Accurately ripped (confidence 23) [E23B069F]
Copy OK
Track 8
Filename F:\FLACRIPS\Dark Funeral - 1998 - Vobiscum Satanas\08 - Dark Funeral - Ineffable King of Darkness.wav
Pre-gap length 0:00:01.15
Peak level 89.3 %
Track quality 99.9 %
Test CRC 9E8D14C5
Copy CRC 9E8D14C5
Accurately ripped (confidence 24) [6042F411]
Copy OK
All tracks accurately ripped
No errors occurred
End of status report

Содержание индексной карты

REM GENRE "Black Metal"
REM DATE 1998
REM DISCID 5F083A08
REM COMMENT "ExactAudioCopy v0.99pb5"
PERFORMER "Dark Funeral"
TITLE "Vobiscum Satanas"
FILE "01 - Dark Funeral - Ravenna Strigoi Mortii.wav" WAVE
TRACK 01 AUDIO
TITLE "Ravenna Strigoi Mortii"
PERFORMER "Dark Funeral"
INDEX 01 00:00:00
TRACK 02 AUDIO
TITLE "Enriched By Evil"
PERFORMER "Dark Funeral"
INDEX 00 04:24:60
FILE "02 - Dark Funeral - Enriched By Evil.wav" WAVE
INDEX 01 00:00:00
TRACK 03 AUDIO
TITLE "Thy Legions Come"
PERFORMER "Dark Funeral"
INDEX 00 04:40:02
FILE "03 - Dark Funeral - Thy Legions Come.wav" WAVE
INDEX 01 00:00:00
TRACK 04 AUDIO
TITLE "Evil Prevail"
PERFORMER "Dark Funeral"
INDEX 00 04:10:70
FILE "04 - Dark Funeral - Evil Prevail.wav" WAVE
INDEX 01 00:00:00
TRACK 05 AUDIO
TITLE "Slava Satan"
PERFORMER "Dark Funeral"
INDEX 00 04:27:22
FILE "05 - Dark Funeral - Slava Satan.wav" WAVE
INDEX 01 00:00:00
TRACK 06 AUDIO
TITLE "The Black Winged Horde"
PERFORMER "Dark Funeral"
INDEX 00 03:55:70
FILE "06 - Dark Funeral - The Black Winged Horde.wav" WAVE
INDEX 01 00:00:00
TRACK 07 AUDIO
TITLE "Vobiscum Satanas"
PERFORMER "Dark Funeral"
INDEX 00 04:35:07
FILE "07 - Dark Funeral - Vobiscum Satanas.wav" WAVE
INDEX 01 00:00:00
TRACK 08 AUDIO
TITLE "Ineffable King of Darkness"
PERFORMER "Dark Funeral"
INDEX 00 04:59:07
FILE "08 - Dark Funeral - Ineffable King of Darkness.wav" WAVE
INDEX 01 00:00:00

1998 - Vobiscum Satanas (2007 remastered)

Страна-производитель диска: Sweden
Издатель (лейбл): Dark Funeral
Номер по каталогу: DF002
Формат: FLAC (image+cue)
Продолжительность: 00:52:31
Источник: MMT, SixSixSixten
Наличие сканов: да, full, HQ, + сканы jewel case edition от MangeWAR
Треклист:
01. Ravenna strigoi mortii [00:04:24]
02. Enriched by evil [00:04:40]
03. Thy legions come [00:04:10]
04. Evil prevail [00:04:27]
05. Slava Satan [00:03:55]
06. The black winged horde [00:04:34]
07. Vobiscum Satanas [00:04:59]
08. Ineffable king of darkness [00:03:37]
09. Enriched by evil (live at Hultsfred Festival) [00:04:44]
10. Thy legions come (live at Hultsfred Festival) [00:04:14]
11. Vobiscum Satanas (live at Hultsfred Festival) [00:05:00]
12. Ineffable king of darkness (live at Hultsfred Festival) [00:03:41]

Отчёт EAC

Exact Audio Copy V0.99 prebeta 4 from 23. January 2008
EAC extraction logfile from 1. August 2008, 11:44
Dark Funeral / Vobiscum Satanas (Remastered)
Used drive : TSSTcorpCD/DVDW SH-S183A Adapter: 1 ID: 0
Read mode : Secure
Utilize accurate stream : Yes
Defeat audio cache : Yes
Make use of C2 pointers : No
Read offset correction : 6
Overread into Lead-In and Lead-Out : No
Fill up missing offset samples with silence : Yes
Delete leading and trailing silent blocks : No
Null samples used in CRC calculations : Yes
Used interface : Installed external ASPI interface
Used output format : User Defined Encoder
Selected bitrate : 32 kBit/s
Quality : High
Add ID3 tag : Yes
Command line compressor : C:\Program\Exact Audio Copy\Flac\bin\flac.exe
Additional command line options : -V -6 -T "artist=%a" -T "title=%t" -T "album=%g" -T "date=%y" -T "tracknumber=%n"
-T "genre=%m" %s
TOC of the extracted CD
Track | Start | Length | Start sector | End sector
---------------------------------------------------------
1 | 0:00.00 | 4:25.03 | 0 | 19877
2 | 4:25.03 | 4:41.03 | 19878 | 40955
3 | 9:06.06 | 4:11.62 | 40956 | 59842
4 | 13:17.68 | 4:27.45 | 59843 | 79912
5 | 17:45.38 | 3:58.17 | 79913 | 97779
6 | 21:43.55 | 4:36.59 | 97780 | 118538
7 | 26:20.39 | 4:59.26 | 118539 | 140989
8 | 31:19.65 | 3:41.70 | 140990 | 157634
9 | 35:01.60 | 4:44.10 | 157635 | 178944
10 | 39:45.70 | 4:14.41 | 178945 | 198035
11 | 44:00.36 | 5:00.40 | 198036 | 220575
12 | 49:01.01 | 3:41.46 | 220576 | 237196
Range status and errors
Selected range
Filename E:\Dark Funeral - Vobiscum Satanas (Remastered).wav
Peak level 99.9 %
Range quality 100.0 %
Copy CRC 14863AEC
Copy OK
No errors occurred
End of status report

2000 - In the sign... (EP)

Страна-производитель диска: Sweden
Издатель (лейбл): Hellspawn Records
Номер по каталогу: HELL006
Формат: FLAC (tracks+cue)
Продолжительность: 00:24:29
Источник: what cd, obscurehaven
Наличие сканов: да, но весьма низкого качества, найдены в сети
Треклист:
01. Open the gates [00:04:34]
02. Shadows over transylvania [00:04:22]
03. My dark desires [00:03:52]
04. In the sign of the horns [00:03:43]
05. Equimanthorn [00:03:21]
06. Call from the grave [00:04:35]

Отчёт EAC

EAC extraction logfile from 14. August 2009, 3:28 for CD
Dark Funeral / In the Sign...
Used drive : PIONEER DVD-RW DVR-108 Adapter: 1 ID: 0
Read mode : Secure with NO C2, accurate stream, disable cache
Read offset correction : 48
Overread into Lead-In and Lead-Out : No
Used output format : C:\Programs\Misc\EAC\Exact Audio Copy\FLAC\flac.exe (User Defined Encoder)
160 kBit/s
Additional command line options : -V -8 -T "artist=%a" -T "title=%t" -T "album=%g" -T
"date=%y" -T "tracknumber=%n" -T "genre=%m" %s
Other options :
Fill up missing offset samples with silence : Yes
Delete leading and trailing silent blocks : No
Native Win32 interface for Win NT & 2000
Track 1
Filename C:\Documents and Settings\jack\Desktop\2000 - In the Sign\01 - Open The Gates.wav
Pre-gap length 0:00:02.00
Peak level 100.0 %
Track quality 100.0 %
Test CRC 50AF2BB4
Copy CRC 50AF2BB4
Copy OK
Track 2
Filename C:\Documents and Settings\jack\Desktop\2000 - In the Sign\02 - Shadows Over Transylvania.wav
Pre-gap length 0:00:01.73
Peak level 100.0 %
Track quality 100.0 %
Test CRC 0253FDD6
Copy CRC 0253FDD6
Copy OK
Track 3
Filename C:\Documents and Settings\jack\Desktop\2000 - In the Sign\03 - My Dark Desires.wav
Pre-gap length 0:00:01.66
Peak level 100.0 %
Track quality 100.0 %
Test CRC 7C394585
Copy CRC 7C394585
Copy OK
Track 4
Filename C:\Documents and Settings\jack\Desktop\2000 - In the Sign\04 - In The Sign Of The Horns.wav
Pre-gap length 0:00:02.24
Peak level 100.0 %
Track quality 100.0 %
Test CRC B4FD673C
Copy CRC B4FD673C
Copy OK
Track 5
Filename C:\Documents and Settings\jack\Desktop\2000 - In the Sign\05 - Equimanthorn.wav
Peak level 100.0 %
Track quality 100.0 %
Test CRC 3758AAB4
Copy CRC 3758AAB4
Copy OK
Track 6
Filename C:\Documents and Settings\jack\Desktop\2000 - In the Sign\06 - Call From The Grave.wav
Peak level 100.0 %
Track quality 100.0 %
Test CRC F904801E
Copy CRC F904801E
Copy OK
No errors occured
End of status report

Содержание .cue

REM GENRE "Black Metal"
REM DATE 2000
REM DISCID 5805BD06
REM COMMENT "ExactAudioCopy v0.95b4"
PERFORMER "Dark Funeral"
TITLE "In the Sign..."
FILE "01 Open the gates.wav" WAVE
TRACK 01 AUDIO
TITLE "Open The Gates"
PERFORMER "Dark Funeral"
INDEX 01 00:00:00
TRACK 02 AUDIO
TITLE "Shadows Over Transylvania"
PERFORMER "Dark Funeral"
INDEX 00 04:32:27
FILE "02 Shadows over transylvania.wav" WAVE
INDEX 01 00:00:00
TRACK 03 AUDIO
TITLE "My Dark Desires"
PERFORMER "Dark Funeral"
INDEX 00 04:20:60
FILE "03 My dark desires.wav" WAVE
INDEX 01 00:00:00
TRACK 04 AUDIO
TITLE "In The Sign Of The Horns"
PERFORMER "Dark Funeral"
INDEX 00 03:50:50
FILE "04 In the sign of the horns.wav" WAVE
INDEX 01 00:00:00
FILE "05 Equimanthorn.wav" WAVE
TRACK 05 AUDIO
TITLE "Equimanthorn"
PERFORMER "Dark Funeral"
INDEX 01 00:00:00
FILE "06 Call from the grave.wav" WAVE
TRACK 06 AUDIO
TITLE "Call From The Grave"
PERFORMER "Dark Funeral"
INDEX 01 00:00:00

2000 - Teach children to worship Satan (EP)

Страна-производитель диска: Sweden
Издатель (лейбл): No Fashion Records
Номер по каталогу: NFR039
Формат: FLAC (image+cue)
Продолжительность: 00:27:09
Источник: MMT, Absurditat
Наличие сканов: да, HQ
Треклист:
01. An apprentice of Satan [00:06:05]
02. The trial [00:05:28]
03. Dead skin mask [00:04:47]
04. Remember the fallen [00:04:16]
05. Pagan fears [00:06:32]

Отчёт EAC

EAC extraction logfile from 17. January 2008, 11:44 for CD
Dark Funeral / Teach Children To Worship Satan
Used drive : HL-DT-STDVD-ROM GDR8164B Adapter: 4 ID: 1
Read mode : Secure with NO C2, accurate stream, disable cache
Read offset correction : 102
Overread into Lead-In and Lead-Out : No
Used output format : C:\Program Files\FLAC.EXE (User Defined Encoder)
128 kBit/s
Additional command line options : -6 -V %s
Other options :
Fill up missing offset samples with silence : Yes
Delete leading and trailing silent blocks : No
Installed external ASPI interface
Range status and errors
Selected range
Filename D:\releases\Dark Funeral[2000]Teach Children To Worship Satan\Dark Funeral - Teach Children To Worship Satan.wav
Peak level 100.0 %
Range quality 100.0 %
CRC E60653A1
Copy OK
No errors occured
End of status report

2001 - Diabolis interium

Страна-производитель диска: Sweden
Издатель (лейбл): No Fashion Records
Номер по каталогу: NFR066
Формат: FLAC (image+cue)
Продолжительность: 00:36:17
Источник: MMT, Jobs
Наличие сканов: да, full
Треклист:
01. The arrival of Satan's empire [00:03:46]
02. Hail murder [00:05:02]
03. Goddess of sodomy [00:04:10]
04. Diabolis interium [00:04:19]
05. An apprentice of Satan [00:06:03]
06. Thus I have spoken [00:04:59]
07. Armageddon finally comes [00:03:21]
08. Heart of ice [00:04:34]

Отчёт EAC

EAC extraction logfile from 4. April 2004, 20:14 for CD
Dark Funeral / Diabolis Interium
Used drive : LITE-ON COMBO LTC-48161H Adapter: 3 ID: 0
Read mode : Secure with NO C2, accurate stream, disable cache
Read offset correction : 6
Overread into Lead-In and Lead-Out : No
Used output format : D:\Archivos de programa\Sonido\Ripeo CD-DA\EAC\flac.exe (User Defined Encoder)
128 kBit/s
Additional command line options : --best --verify -T "artist=%a" -T "album=%g" -T "date=%y" %s
Other options :
Fill up missing offset samples with silence : Yes
Delete leading and trailing silent blocks : No
Installed external ASPI interface
Range status and errors
Selected range
Filename D:\Documents and Settings\Jobs\Mis Documentos\Mi mъsica\flacs\Dark Funeral\[2001] Diabolis
Interium\Dark Funeral - [2001] Diabolis Interium.flac.wav
Peak level 99.4 %
Range quality 100.0 %
CRC 8A7466AF
Copy OK
No errors occured
End of status report

2001 - Diabolis interium (2007 remastered)

Страна-производитель диска: Sweden
Издатель (лейбл): Dark Funeral
Номер по каталогу: DF003
Формат: FLAC (tracks+cue)
Продолжительность: 01:03:30
Источник: what cd, MangeWAR
Наличие сканов: да, HQ, но без буклета
Треклист:
CD1:
01. The arrival of Satan's empire [00:03:46]
02. Hail murder [00:05:01]
03. Goddess of sodomy [00:04:11]
04. Diabolis interium [00:04:20]
05. An apprentice of Satan [00:06:04]
06. Thus I have spoken [00:04:59]
07. Armageddon finally comes [00:03:21]
08. Heart of ice [00:04:34]
CD2:
01. An apprentice of Satan [00:06:06]
02. The trial [00:05:28]
03. Dead skin mask [00:04:47]
04. Remember the fallen [00:04:16]
05. Pagan fears [00:06:32]

Отчёт EAC CD1

Exact Audio Copy V1.0 beta 1 from 15. November 2010
EAC extraction logfile from 12. November 2011, 17:50
Dark Funeral / Diabolis Interium [Remastered 2007]
Used drive : Optiarc DVD RW AD-7260S Adapter: 2 ID: 0
Read mode : Secure
Utilize accurate stream : Yes
Defeat audio cache : Yes
Make use of C2 pointers : No
Read offset correction : 48
Overread into Lead-In and Lead-Out : No
Fill up missing offset samples with silence : Yes
Delete leading and trailing silent blocks : No
Null samples used in CRC calculations : Yes
Used interface : Native Win32 interface for Win NT & 2000
Gap handling : Appended to previous track
Used output format : User Defined Encoder
Selected bitrate : 320 kBit/s
Quality : High
Add ID3 tag : No
Command line compressor : C:\Program Files (x86)\Exact Audio Copy\Flac\flac.exe
Additional command line options : -V -8 -T "artist=%a" -T "title=%t" -T "album=%g" -T "date=%y" -T "tracknumber=%n"
-T "genre=%m" %s
TOC of the extracted CD
Track | Start | Length | Start sector | End sector
---------------------------------------------------------
1 | 0:00.00 | 3:46.45 | 0 | 16994
2 | 3:46.45 | 5:01.70 | 16995 | 39639
3 | 8:48.40 | 4:11.53 | 39640 | 58517
4 | 13:00.18 | 4:20.49 | 58518 | 78066
5 | 17:20.67 | 6:04.36 | 78067 | 105402
6 | 23:25.28 | 4:59.24 | 105403 | 127851
7 | 28:24.52 | 3:21.36 | 127852 | 142962
8 | 31:46.13 | 4:34.18 | 142963 | 163530
Track 1
Filename M:\MUSiC RiPS\01-Dark Funeral-The Arrival Of Satan's Empire.wav
Pre-gap length 0:00:02.00
Peak level 100.0 %
Extraction speed 2.4 X
Track quality 100.0 %
Test CRC E7EB8C26
Copy CRC E7EB8C26
Accurately ripped (confidence 2) [D5D62C04]
Copy OK
Track 2
Filename M:\MUSiC RiPS\02-Dark Funeral-Hail Murder.wav
Pre-gap length 0:00:00.24
Peak level 100.0 %
Extraction speed 2.7 X
Track quality 100.0 %
Test CRC F32D31F9
Copy CRC F32D31F9
Accurately ripped (confidence 2) [18833501]
Copy OK
Track 3
Filename M:\MUSiC RiPS\03-Dark Funeral-Goddess Of Sodomy.wav
Peak level 100.0 %
Extraction speed 2.6 X
Track quality 99.9 %
Test CRC 889F5099
Copy CRC 889F5099
Accurately ripped (confidence 2) [E5493ADB]
Copy OK
Track 4
Filename M:\MUSiC RiPS\04-Dark Funeral-Diabolis Interium.wav
Pre-gap length 0:00:00.45
Peak level 100.0 %
Extraction speed 2.8 X
Track quality 99.9 %
Test CRC EE2E88A6
Copy CRC EE2E88A6
Accurately ripped (confidence 2) [C19A584A]
Copy OK
Track 5
Filename M:\MUSiC RiPS\05-Dark Funeral-An Apprentice Of Satan.wav
Pre-gap length 0:00:01.02
Peak level 100.0 %
Extraction speed 3.6 X
Track quality 100.0 %
Test CRC C7A226C9
Copy CRC C7A226C9
Accurately ripped (confidence 2) [594BB450]
Copy OK
Track 6
Filename M:\MUSiC RiPS\06-Dark Funeral-Thus I Have Spoken.wav
Pre-gap length 0:00:00.76
Peak level 100.0 %
Extraction speed 3.8 X
Track quality 100.0 %
Test CRC F3D90864
Copy CRC F3D90864
Accurately ripped (confidence 2) [AAC3CB7D]
Copy OK
Track 7
Filename M:\MUSiC RiPS\07-Dark Funeral-Armageddon Finally Comes.wav
Pre-gap length 0:00:00.21
Peak level 100.0 %
Extraction speed 3.8 X
Track quality 100.0 %
Test CRC 0609C956
Copy CRC 0609C956
Accurately ripped (confidence 2) [5B9913D7]
Copy OK
Track 8
Filename M:\MUSiC RiPS\08-Dark Funeral-Heart Of Ice.wav
Pre-gap length 0:00:00.18
Peak level 100.0 %
Extraction speed 4.1 X
Track quality 100.0 %
Test CRC 5980F8E8
Copy CRC 5980F8E8
Accurately ripped (confidence 2) [72F72CB3]
Copy OK
All tracks accurately ripped
No errors occurred
End of status report
==== Log checksum 0A2768EB2BBC9BAD47218D4C34FF4EF0BA65A18E227F07FF73156DB374C14CBE ====

Отчёт EAC CD2

Exact Audio Copy V1.0 beta 1 from 15. November 2010
EAC extraction logfile from 12. November 2011, 18:11
Dark Funeral / Diabolis Interium [Remastered Bonus Disc]
Used drive : Optiarc DVD RW AD-7260S Adapter: 2 ID: 0
Read mode : Secure
Utilize accurate stream : Yes
Defeat audio cache : Yes
Make use of C2 pointers : No
Read offset correction : 48
Overread into Lead-In and Lead-Out : No
Fill up missing offset samples with silence : Yes
Delete leading and trailing silent blocks : No
Null samples used in CRC calculations : Yes
Used interface : Native Win32 interface for Win NT & 2000
Gap handling : Appended to previous track
Used output format : User Defined Encoder
Selected bitrate : 320 kBit/s
Quality : High
Add ID3 tag : No
Command line compressor : C:\Program Files (x86)\Exact Audio Copy\Flac\flac.exe
Additional command line options : -V -8 -T "artist=%a" -T "title=%t" -T "album=%g" -T "date=%y" -T "tracknumber=%n"
-T "genre=%m" %s
TOC of the extracted CD
Track | Start | Length | Start sector | End sector
---------------------------------------------------------
1 | 0:00.00 | 6:06.07 | 0 | 27456
2 | 6:06.07 | 5:28.07 | 27457 | 52063
3 | 11:34.14 | 4:47.23 | 52064 | 73611
4 | 16:21.37 | 4:16.04 | 73612 | 92815
5 | 20:37.41 | 6:32.38 | 92816 | 122253
Track 1
Filename M:\MUSiC RiPS\01-Dark Funeral-An Apprentice Of Satan 2000.wav
Pre-gap length 0:00:02.00
Peak level 100.0 %
Extraction speed 2.6 X
Track quality 100.0 %
Test CRC EB01E939
Copy CRC EB01E939
Accurately ripped (confidence 2) [C9732E00]
Copy OK
Track 2
Filename M:\MUSiC RiPS\02-Dark Funeral-The Trial [King Diamond Cover].wav
Peak level 100.0 %
Extraction speed 2.7 X
Track quality 99.9 %
Test CRC 97AC6C19
Copy CRC 97AC6C19
Accurately ripped (confidence 2) [EF9DF889]
Copy OK
Track 3
Filename M:\MUSiC RiPS\03-Dark Funeral-Dead Skin Mask [Slayer Cover].wav
Peak level 100.0 %
Extraction speed 3.2 X
Track quality 100.0 %
Test CRC 697DDB65
Copy CRC 697DDB65
Accurately ripped (confidence 2) [5FB8089B]
Copy OK
Track 4
Filename M:\MUSiC RiPS\04-Dark Funeral-Remember The Fallen [Sodom Cover].wav
Peak level 100.0 %
Extraction speed 3.4 X
Track quality 100.0 %
Test CRC C3D0FA96
Copy CRC C3D0FA96
Accurately ripped (confidence 2) [3787C481]
Copy OK
Track 5
Filename M:\MUSiC RiPS\05-Dark Funeral-Pagan Fears [Mayhem Cover].wav
Pre-gap length 0:00:00.32
Peak level 100.0 %
Extraction speed 3.5 X
Track quality 99.9 %
Test CRC 952B06FF
Copy CRC 952B06FF
Accurately ripped (confidence 2) [496E8412]
Copy OK
All tracks accurately ripped
No errors occurred
End of status report
==== Log checksum 299EA498C54A5D96D3755D855CEE4321F860F61C75C524DAD98A3EADB5AA4E34 ====

Содержание .cue CD1

REM GENRE "Black Metal"
REM DATE 2001
REM DISCID 5A088408
REM COMMENT "ExactAudioCopy v1.0b1"
FILE "01 The Arrival Of Satan's Empire.wav" WAVE
TRACK 01 AUDIO
INDEX 01 00:00:00
TRACK 02 AUDIO
INDEX 00 03:46:27
FILE "02 Hail Murder.wav" WAVE
INDEX 01 00:00:00
FILE "03 Goddess Of Sodomy.wav" WAVE
TRACK 03 AUDIO
INDEX 01 00:00:00
TRACK 04 AUDIO
INDEX 00 04:11:19
FILE "04 Diabolis Interium.wav" WAVE
INDEX 01 00:00:00
TRACK 05 AUDIO
INDEX 00 04:19:47
FILE "05 An Apprentice Of Satan.wav" WAVE
INDEX 01 00:00:00
TRACK 06 AUDIO
INDEX 00 06:03:54
FILE "06 Thus I Have Spoken.wav" WAVE
INDEX 01 00:00:00
TRACK 07 AUDIO
INDEX 00 04:59:08
FILE "07 Armageddon Finally Comes.wav" WAVE
INDEX 01 00:00:00
TRACK 08 AUDIO
INDEX 00 03:21:22
FILE "08 Heart Of Ice.wav" WAVE
INDEX 01 00:00:00

Содержание .cue CD2

REM GENRE "Black Metal"
REM DATE 2007
REM DISCID 4B065E05
REM COMMENT "ExactAudioCopy v1.0b1"
FILE "01 An Apprentice Of Satan.wav" WAVE
TRACK 01 AUDIO
INDEX 01 00:00:00
FILE "02 The Trial.wav" WAVE
TRACK 02 AUDIO
INDEX 01 00:00:00
FILE "03 Dead Skin Mask.wav" WAVE
TRACK 03 AUDIO
INDEX 01 00:00:00
FILE "04 Remember The Fallen.wav" WAVE
TRACK 04 AUDIO
INDEX 01 00:00:00
TRACK 05 AUDIO
INDEX 00 04:15:55
FILE "05 Pagan Fears.wav" WAVE
INDEX 01 00:00:00

2004 - De profundis clamavi ad te domine (Live in South America 2003)

Страна-производитель диска: Sweden
Издатель (лейбл): Regain Records
Номер по каталогу: RR 0403-051
Формат: FLAC (image+cue)
Продолжительность: 00:55:49
Источник: MMT, Absurditat
Наличие сканов: да, найдены в сети
Треклист:
01. Intro [00:01:50]
02. The arrival of Satan's empire [00:03:33]
03. An apprentice of Satan [00:05:28]
04. The dawn no more rises [00:03:15]
05. Thy legions come [00:03:31]
06. Hail murder [00:04:53]
07. Goddess of sodomy [00:03:18]
08. The secrets of the black arts [00:03:09]
09. Vobiscum Satanas [00:04:13]
10. Shadows over transylvania [00:03:16]
11. Open the gates [00:03:53]
12. Ineffable kings of darkness [00:02:55]
13. Thus I have spoken [00:04:55]
14. My dark desires [00:03:41]
15. Armageddon finally comes [00:03:51]

Отчёт EAC

Exact Audio Copy V0.99 prebeta 4 from 23. January 2008
EAC extraction logfile from 27. December 2008, 15:06
Dark Funeral / De Profundis Clamavi Ad Te Domine
Used drive : PIONEER DVD-RW DVR-212D Adapter: 3 ID: 0
Read mode : Secure
Utilize accurate stream : Yes
Defeat audio cache : Yes
Make use of C2 pointers : No
Read offset correction : 48
Overread into Lead-In and Lead-Out : No
Fill up missing offset samples with silence : Yes
Delete leading and trailing silent blocks : No
Null samples used in CRC calculations : Yes
Used interface : Installed external ASPI interface
Used output format : User Defined Encoder
Selected bitrate : 128 kBit/s
Quality : High
Add ID3 tag : No
Command line compressor : C:\Program Files\Exact Audio Copy\Flac\flac.exe
Additional command line options : -6 -V %s
TOC of the extracted CD
Track | Start | Length | Start sector | End sector
---------------------------------------------------------
1 | 0:00.00 | 1:52.24 | 0 | 8423
2 | 1:52.24 | 3:46.54 | 8424 | 25427
3 | 5:39.03 | 5:30.19 | 25428 | 50196
4 | 11:09.22 | 4:05.54 | 50197 | 68625
5 | 15:15.01 | 4:09.53 | 68626 | 87353
6 | 19:24.54 | 5:21.37 | 87354 | 111465
7 | 24:46.16 | 3:20.53 | 111466 | 126518
8 | 28:06.69 | 3:34.05 | 126519 | 142573
9 | 31:40.74 | 4:19.29 | 142574 | 162027
10 | 36:00.28 | 3:32.09 | 162028 | 177936
11 | 39:32.37 | 4:17.45 | 177937 | 197256
12 | 43:50.07 | 4:35.46 | 197257 | 217927
13 | 48:25.53 | 5:20.00 | 217928 | 241927
14 | 53:45.53 | 3:57.36 | 241928 | 259738
15 | 57:43.14 | 4:06.50 | 259739 | 278238
Range status and errors
Selected range
Filename M:\my releases\new releases\dark funeral\Dark Funeral - De Profundis Clamavi Ad Te Domine.wav
Peak level 100.0 %
Range quality 100.0 %
Copy CRC 2F39BD87
Copy OK
No errors occurred
AccurateRip summary
Track 1 accurately ripped (confidence 2) [A6346BB2]
Track 2 accurately ripped (confidence 2) [8B5675A5]
Track 3 accurately ripped (confidence 2) [9B570CF4]
Track 4 accurately ripped (confidence 2) [5CDA1B5F]
Track 5 accurately ripped (confidence 2) [BD5EE398]
Track 6 accurately ripped (confidence 2) [FE7D5E15]
Track 7 accurately ripped (confidence 2) [047BC5F9]
Track 8 accurately ripped (confidence 2) [A7703D20]
Track 9 accurately ripped (confidence 2) [5D7E202F]
Track 10 accurately ripped (confidence 2) [2B77F72B]
Track 11 accurately ripped (confidence 2) [C06041C1]
Track 12 accurately ripped (confidence 2) [A25BEFC4]
Track 13 accurately ripped (confidence 2) [74F10612]
Track 14 accurately ripped (confidence 2) [7ED7E2C9]
Track 15 accurately ripped (confidence 2) [130C51DE]
All tracks accurately ripped
End of status report

2005 - Attera totus sanctus

Страна-производитель диска: Sweden
Издатель (лейбл): Regain Records
Номер по каталогу: RR070
Формат: FLAC (image+cue)
Продолжительность: 00:42:56
Источник: MMT, KRAGOTH[TheBlackLegion]
Наличие сканов: да, full, HQ
Треклист:
01. King antichrist [00:04:39]
02. 666 voices inside [00:04:37]
03. Attera totus sanctus [00:05:38]
04. Godhate [00:05:06]
05. Atrum regina [00:05:33]
06. Angel flesh impaled [00:05:53]
07. Feed on the mortals [00:05:41]
08. Final ritual [00:05:44]

Отчёт EAC

EAC extraction logfile from 31. October 2005, 17:36 for CD
Dark Funeral / Attera totus santcus
Used drive : ATAPI DVD-ROM 16XMax Adapter: 1 ID: 0
Read mode : Secure with NO C2, accurate stream, disable cache
Read offset correction : 12
Overread into Lead-In and Lead-Out : No
Used output format : Internal WAV Routines
44.100 Hz; 16 Bit; Stereo
Other options :
Fill up missing offset samples with silence : Yes
Delete leading and trailing silent blocks : No
Installed external ASPI interface
Range status and errors
Selected range
Filename C:\Documents and Settings\pcx\Bureau\MUSIC MADNESS\DARK FUNERAL - Attera totus santcus.wav
Peak level 98.8 %
Range quality 100.0 %
CRC 8B9C689E
Copy OK
No errors occured
End of status report

2005 - Attera totus sanctus (reissue 2013)

Издатель (лейбл): Century Media
Номер по каталогу: 9983702
Формат: FLAC (tracks+cue)
Продолжительность: 01:16:10
Источник: what cd, nemezzis
Наличие сканов: нет
Треклист:
01. King Antichrist [00:04:39]
02. 666 voices inside [00:04:38]
03. Attera totus sanctus [00:05:38]
04. Godhate [00:05:06]
05. Atrum regina [00:05:33]
06. Angel flesh impaled [00:05:53]
07. Feed on the mortals [00:05:41]
08. Final ritual [00:05:44]
09. Atrum regina (instrumental) [00:05:32]
10. Open the gates (2005 version) [00:04:21]
11. The arrival of Satan's empire (live in South America 2003) [00:03:34]
12. An apprentice of Satan (live in South America 2003) [00:05:30]
13. The dawn no more rises (live in South America 2003) [00:03:26]
14. The secrets of the black arts (live in South America 2003) [00:03:34]
15. Vobiscum Satanas (live in South America 2003) [00:04:19]
16. Ineffable King of Darkness (live in South America 2003) [00:02:53]
треки 9, 10 - с японского издания альбома; 11-16 - с концертного альбома "De profundis clamavi ad te domine" (2004)

Отчёт EAC

Exact Audio Copy V1.0 beta 3 from 29. August 2011
EAC extraction logfile from 8. December 2013, 19:17
Dark Funeral / Attera Totus Sanctus
Used drive : ASUS DRW-1814BL Adapter: 0 ID: 1
Read mode : Secure
Utilize accurate stream : Yes
Defeat audio cache : Yes
Make use of C2 pointers : No
Read offset correction : 6
Overread into Lead-In and Lead-Out : No
Fill up missing offset samples with silence : Yes
Delete leading and trailing silent blocks : No
Null samples used in CRC calculations : Yes
Used interface : Installed external ASPI interface
Gap handling : Appended to previous track
Used output format : Internal WAV Routines
Sample format : 44.100 Hz; 16 Bit; Stereo
TOC of the extracted CD
Track | Start | Length | Start sector | End sector
---------------------------------------------------------
1 | 0:00.00 | 4:39.64 | 0 | 20988
2 | 4:39.64 | 4:38.00 | 20989 | 41838
3 | 9:17.64 | 5:38.00 | 41839 | 67188
4 | 14:55.64 | 5:06.74 | 67189 | 90212
5 | 20:02.63 | 5:33.48 | 90213 | 115235
6 | 25:36.36 | 5:53.66 | 115236 | 141776
7 | 31:30.27 | 5:41.40 | 141777 | 167391
8 | 37:11.67 | 5:44.31 | 167392 | 193222
9 | 42:56.23 | 5:32.61 | 193223 | 218183
10 | 48:29.09 | 4:21.67 | 218184 | 237825
11 | 52:51.01 | 3:34.53 | 237826 | 253928
12 | 56:25.54 | 5:30.02 | 253929 | 278680
13 | 61:55.56 | 3:26.54 | 278681 | 294184
14 | 65:22.35 | 3:34.24 | 294185 | 310258
15 | 68:56.59 | 4:19.03 | 310259 | 329686
16 | 73:15.62 | 2:53.61 | 329687 | 342722
Track 1
Filename I:\rips\Dark Funeral - 2005 - Attera Totus Sanctus\01 - King Antichrist.wav
Pre-gap length 0:00:02.00
Peak level 99.6 %
Extraction speed 4.4 X
Track quality 99.9 %
Test CRC FCF8560C
Copy CRC FCF8560C
Track not present in AccurateRip database
Copy OK
Track 2
Filename I:\rips\Dark Funeral - 2005 - Attera Totus Sanctus\02 - 666 Voices Inside.wav
Peak level 99.6 %
Extraction speed 5.4 X
Track quality 100.0 %
Test CRC D70A6459
Copy CRC D70A6459
Track not present in AccurateRip database
Copy OK
Track 3
Filename I:\rips\Dark Funeral - 2005 - Attera Totus Sanctus\03 - Attera Totus Sanctus.wav
Peak level 99.6 %
Extraction speed 5.5 X
Track quality 99.9 %
Test CRC 47E25462
Copy CRC 47E25462
Track not present in AccurateRip database
Copy OK
Track 4
Filename I:\rips\Dark Funeral - 2005 - Attera Totus Sanctus\04 - Godhate.wav
Peak level 99.6 %
Extraction speed 6.3 X
Track quality 100.0 %
Test CRC C72DF8F2
Copy CRC C72DF8F2
Track not present in AccurateRip database
Copy OK
Track 5
Filename I:\rips\Dark Funeral - 2005 - Attera Totus Sanctus\05 - Atrum Regina.wav
Peak level 99.6 %
Extraction speed 6.1 X
Track quality 99.9 %
Test CRC 7D932245
Copy CRC 7D932245
Track not present in AccurateRip database
Copy OK
Track 6
Filename I:\rips\Dark Funeral - 2005 - Attera Totus Sanctus\06 - Angel Flesh Impaled.wav
Peak level 99.6 %
Extraction speed 6.7 X
Track quality 99.9 %
Test CRC C29DFAC8
Copy CRC C29DFAC8
Track not present in AccurateRip database
Copy OK
Track 7
Filename I:\rips\Dark Funeral - 2005 - Attera Totus Sanctus\07 - Feed on the Mortals.wav
Peak level 99.6 %
Extraction speed 7.6 X
Track quality 100.0 %
Test CRC C23354BA
Copy CRC C23354BA
Track not present in AccurateRip database
Copy OK
Track 8
Filename I:\rips\Dark Funeral - 2005 - Attera Totus Sanctus\08 - Final Ritual.wav
Peak level 99.6 %
Extraction speed 8.1 X
Track quality 100.0 %
Test CRC 270537A8
Copy CRC 270537A8
Track not present in AccurateRip database
Copy OK
Track 9
Filename I:\rips\Dark Funeral - 2005 - Attera Totus Sanctus\09 - Atrum Regina.wav
Peak level 99.6 %
Extraction speed 8.2 X
Track quality 100.0 %
Test CRC 1B7B820B
Copy CRC 1B7B820B
Track not present in AccurateRip database
Copy OK
Track 10
Filename I:\rips\Dark Funeral - 2005 - Attera Totus Sanctus\10 - Open the Gates.wav
Peak level 99.6 %
Extraction speed 8.2 X
Track quality 100.0 %
Test CRC 1FCF24D5
Copy CRC 1FCF24D5
Track not present in AccurateRip database
Copy OK
Track 11
Filename I:\rips\Dark Funeral - 2005 - Attera Totus Sanctus\11 - The Arrival of Satan's Empire.wav
Peak level 99.6 %
Extraction speed 8.3 X
Track quality 100.0 %
Test CRC D1409069
Copy CRC D1409069
Track not present in AccurateRip database
Copy OK
Track 12
Filename I:\rips\Dark Funeral - 2005 - Attera Totus Sanctus\12 - An Apprentice of Satan.wav
Peak level 100.0 %
Extraction speed 8.2 X
Track quality 99.9 %
Test CRC 4679EC0F
Copy CRC 4679EC0F
Track not present in AccurateRip database
Copy OK
Track 13
Filename I:\rips\Dark Funeral - 2005 - Attera Totus Sanctus\13 - The Dawn No More Rises.wav
Peak level 99.6 %
Extraction speed 8.7 X
Track quality 100.0 %
Test CRC 8932BD91
Copy CRC 8932BD91
Track not present in AccurateRip database
Copy OK
Track 14
Filename I:\rips\Dark Funeral - 2005 - Attera Totus Sanctus\14 - The Secrets of the Black Arts.wav
Peak level 99.6 %
Extraction speed 9.0 X
Track quality 100.0 %
Test CRC 0AFEFBDB
Copy CRC 0AFEFBDB
Track not present in AccurateRip database
Copy OK
Track 15
Filename I:\rips\Dark Funeral - 2005 - Attera Totus Sanctus\15 - Vobiscum Satanas.wav
Peak level 99.6 %
Extraction speed 9.4 X
Track quality 100.0 %
Test CRC DFFECEB8
Copy CRC DFFECEB8
Track not present in AccurateRip database
Copy OK
Track 16
Filename I:\rips\Dark Funeral - 2005 - Attera Totus Sanctus\16 - Ineffable King of Darkness.wav
Peak level 99.6 %
Extraction speed 8.9 X
Track quality 100.0 %
Test CRC F3A8756C
Copy CRC F3A8756C
Track not present in AccurateRip database
Copy OK
None of the tracks are present in the AccurateRip database
No errors occurred
End of status report
==== Log checksum 6408643F8CC132C97477C123E2E1A3644DFB0CC5307900FA70C188C61DC50B6C ====

Содержание индексной карты

REM GENRE Metal
REM DATE 2005
REM DISCID 0011D910
REM COMMENT "ExactAudioCopy v1.0b3"
PERFORMER "Dark Funeral"
TITLE "Attera Totus Sanctus"
FILE "01 - King Antichrist.wav" WAVE
TRACK 01 AUDIO
TITLE "King Antichrist"
PERFORMER "Dark Funeral"
INDEX 01 00:00:00
FILE "02 - 666 Voices Inside.wav" WAVE
TRACK 02 AUDIO
TITLE "666 Voices Inside"
PERFORMER "Dark Funeral"
INDEX 01 00:00:00
FILE "03 - Attera Totus Sanctus.wav" WAVE
TRACK 03 AUDIO
TITLE "Attera Totus Sanctus"
PERFORMER "Dark Funeral"
INDEX 01 00:00:00
FILE "04 - Godhate.wav" WAVE
TRACK 04 AUDIO
TITLE "Godhate"
PERFORMER "Dark Funeral"
INDEX 01 00:00:00
FILE "05 - Atrum Regina.wav" WAVE
TRACK 05 AUDIO
TITLE "Atrum Regina"
PERFORMER "Dark Funeral"
INDEX 01 00:00:00
FILE "06 - Angel Flesh Impaled.wav" WAVE
TRACK 06 AUDIO
TITLE "Angel Flesh Impaled"
PERFORMER "Dark Funeral"
INDEX 01 00:00:00
FILE "07 - Feed on the Mortals.wav" WAVE
TRACK 07 AUDIO
TITLE "Feed on the Mortals"
PERFORMER "Dark Funeral"
INDEX 01 00:00:00
FILE "08 - Final Ritual.wav" WAVE
TRACK 08 AUDIO
TITLE "Final Ritual"
PERFORMER "Dark Funeral"
INDEX 01 00:00:00
FILE "09 - Atrum Regina.wav" WAVE
TRACK 09 AUDIO
TITLE "Atrum Regina"
PERFORMER "Dark Funeral"
INDEX 01 00:00:00
FILE "10 - Open the Gates.wav" WAVE
TRACK 10 AUDIO
TITLE "Open the Gates"
PERFORMER "Dark Funeral"
INDEX 01 00:00:00
FILE "11 - The Arrival of Satan's Empire.wav" WAVE
TRACK 11 AUDIO
TITLE "The Arrival of Satan's Empire"
PERFORMER "Dark Funeral"
INDEX 01 00:00:00
FILE "12 - An Apprentice of Satan.wav" WAVE
TRACK 12 AUDIO
TITLE "An Apprentice of Satan"
PERFORMER "Dark Funeral"
INDEX 01 00:00:00
FILE "13 - The Dawn No More Rises.wav" WAVE
TRACK 13 AUDIO
TITLE "The Dawn No More Rises"
PERFORMER "Dark Funeral"
INDEX 01 00:00:00
FILE "14 - The Secrets of the Black Arts.wav" WAVE
TRACK 14 AUDIO
TITLE "The Secrets of the Black Arts"
PERFORMER "Dark Funeral"
INDEX 01 00:00:00
FILE "15 - Vobiscum Satanas.wav" WAVE
TRACK 15 AUDIO
TITLE "Vobiscum Satanas"
PERFORMER "Dark Funeral"
INDEX 01 00:00:00
FILE "16 - Ineffable King of Darkness.wav" WAVE
TRACK 16 AUDIO
TITLE "Ineffable King of Darkness"
PERFORMER "Dark Funeral"
INDEX 01 00:00:00

2009 - Angelus exuro pro eternus

Страна-производитель диска: Sweden
Издатель (лейбл): Regain Records
Номер по каталогу: RR172
Формат: FLAC (image+cue)
Продолжительность: 00:46:55
Источник: MMT, ighstolupn
Наличие сканов: да, full, HQ
Треклист:
01. The end of human race [00:04:38]
02. The birth of the vampiir [00:04:42]
03. Stigmata [00:05:07]
04. My funeral [00:05:32]
05. Angelus exuro pro eternus [00:05:00]
06. Demons of five [00:04:44]
07. Declaration of hate [00:05:22]
08. In my dreams [00:06:26]
09. My latex queen [00:05:21]

Отчёт EAC

Exact Audio Copy V0.99 prebeta 5 from 4. May 2009
EAC extraction logfile from 31. December 2009, 12:33
Dark Funeral / Angelus Exuro Pro Eternus
Used drive : PIONEER DVD-RW DVR-216D Adapter: 2 ID: 0
Read mode : Secure
Utilize accurate stream : Yes
Defeat audio cache : Yes
Make use of C2 pointers : No
Read offset correction : 96
Overread into Lead-In and Lead-Out : No
Fill up missing offset samples with silence : Yes
Delete leading and trailing silent blocks : No
Null samples used in CRC calculations : Yes
Used interface : Native Win32 interface for Win NT & 2000
Used output format : Internal WAV Routines
Sample format : 44.100 Hz; 16 Bit; Stereo
TOC of the extracted CD
Track | Start | Length | Start sector | End sector
---------------------------------------------------------
1 | 0:00.00 | 4:39.37 | 0 | 20961
2 | 4:39.37 | 4:42.00 | 20962 | 42111
3 | 9:21.37 | 5:07.28 | 42112 | 65164
4 | 14:28.65 | 5:32.73 | 65165 | 90137
5 | 20:01.63 | 5:00.00 | 90138 | 112637
6 | 25:01.63 | 4:45.55 | 112638 | 134067
7 | 29:47.43 | 5:22.07 | 134068 | 158224
8 | 35:09.50 | 6:26.58 | 158225 | 187232
9 | 41:36.33 | 5:21.41 | 187233 | 211348
10 | 49:29.74 | 14:51.06 | 222749 | 289579
Range status and errors
Selected range
Filename E:\MMT\Dark Funeral - Angelus Exuro Pro Eternus.wav
Peak level 99.1 %
Range quality 100.0 %
Copy CRC EDA17EFA
Copy OK
No errors occurred
AccurateRip summary
Track 1 accurately ripped (confidence 4) [87864230]
Track 2 accurately ripped (confidence 4) [5F5DB9B2]
Track 3 accurately ripped (confidence 4) [BFEED87A]
Track 4 accurately ripped (confidence 4) [7C6CA654]
Track 5 accurately ripped (confidence 4) [0F4E6087]
Track 6 accurately ripped (confidence 4) [D8EF652E]
Track 7 accurately ripped (confidence 4) [11DEBC33]
Track 8 accurately ripped (confidence 4) [E6DF6D3D]
Track 9 accurately ripped (confidence 4) [724D30FB]
All tracks accurately ripped
End of status report
Видео: My funeral

Media Info

Полное имя : F:\Моя музыка (F)\Dark funeral\2009 - Angelus exuro pro eternus\My
funeral.mpg
Формат : MPEG-PS
Размер файла : 130 MiB
Продолжительность : 5mn 54s
Общий поток : 3 068 Kbps
Video
Идентификатор : 224 (0xE0)
Формат : MPEG Video
Версия формата : Version 1
Параметр BVOP формата : Yes
Параметр матрицы формата : Custom
Продолжительность : 5mn 54s
Битрейт : 2 800 Kbps
Ширина : 720 pixels
Высота : 576 pixels
Соотношение сторон : 16:9
Частота кадров : 25.000 fps
Стандарт вещания : PAL
Цветовое пространство : YUV
Битовая глубина : 8 bits
Тип развёртки : Progressive
Метод сжатия : Lossy
Бит/(Пиксели*Кадры) : 0.270
Размер потока : 118 MiB (91%)
Audio
Идентификатор : 192 (0xC0)
Формат : MPEG Audio
Версия формата : Version 1
Профиль формата : Layer 2
Продолжительность : 5mn 54s
Вид битрейта : Constant
Битрейт : 224 Kbps
Каналы : 2 channels
Частота : 44.1 KHz
Метод сжатия : Lossy
Размер потока : 9.46 MiB (7%)

Состав

Current:
Lord Ahriman Guitar (1993-present)
See also: Wolfen Society
Chaq Mol Guitars (2003-present)
See also: Mordichrist, ex-Skellington
Dominator Drums (2007-2010, 2011-present)
See also: A*Teem, In Battle, Netherbird, Odhinn, The Wretched End, ex-Chastisement, ex-Aeon, ex-Sanctification, ex-Souldrainer
Zornheym Bass (2011-present)
See also: Aktiv Dödshjälp, ex-Devian, ex-Suicidal Seduction
Emperor Magus Caligula Vocals (live) (2013-present)
See also: Witchery, ex-Dominion Caligula, ex-God Among Insects, ex-Obscurity, ex-Demonoid, ex-Hypocrisy, ex-Votary
Past:
Themgoroth Bass, Vocals (1993-1996)
See also: Obscuratum, ex-Bloodshed, ex-Scum, ex-Infernal, ex-Nattsvargr, ex-Rev 16:8
Draugen Drums (1993-1994)
See also: ex-Illska, ex-Incursion, ex-Svartsyn
Blackmoon Guitars (1993-1996)
(R.I.P. 2013) See also: Infernal, ex-War, ex-Necrophobic
Equimanthorn Drums (1994-1995)
See also: ex-Stigmata
Emperor Magus Caligula Bass (1996-2001), Vocals (1996-2010)
See also: Witchery, ex-Dominion Caligula, ex-God Among Insects, ex-Demonoid, ex-Hypocrisy, ex-Sanctification, ex-Votary
Alzazmon Drums (1996-1998)
See also: Dawn, Gorgoroth, ex-Dissection, ex-Infernal, ex-Necromicon
Typhos Guitars (1996-1998)
See also: ex-Funeral Mist, ex-Infernal
Gaahnfaust Drums (1998-2000)
See also: ex-Dominion Caligula, ex-Obscurity, ex-Vicious Art
Dominion Guitars (1998-2002)
See also: ex-Dominion Caligula, ex-Obscurity, ex-Vicious Art
Matte Modin Drums (2000-2007)
See also: ex-Defleshed, ex-Sportlov, ex-Infernal, ex-Nonexist, ex-Embalmed
B-Force Bass (2005-2010)
See also: Omnizide
Nachtgarm Vocals (2011-2012)
See also: King Fear, Negator, Sanguineus, ex-Aeons Confer, ex-Dämmerfarben, ex-Nayled, ex-Baphomets Throne, ex-Diaspora, ex-Marbas, ex-Verwüstung
Past (Live):
Richard Daemon Bass (2002-2005)
See also: Damnation, Rape Pillage and Burn, Unanimated, ex-Born of Fire, ex-Murder Squad, ex-General Surgery, ex-Obscuratum, ex-Satyricon (live), ex-Carbonized, ex-Dismember
Lord K. Philipson Guitars (2004)
See also: Leukemia, The Project Hate MCMXCIX, Torture Division, ex-God Among Insects, ex-House of Usher, ex-Misery, ex-Odyssey, ex-Grave (live)

История группы с Википедии

1993—1997
Музыкальный коллектив Dark Funeral был основан в 1993 году Lord Ahriman и Blackmoon. Немногим позже в состав вливаются Draugen и Themgoroth. Год спустя — 4 мая 1994 года — был издан дебютный одноимённый релиз — мини-альбом Dark Funeral. В день выхода альбома группа также впервые даёт концерт в клубе Luse Lottes Pub города Осло. После выхода альбома из группы уходит барабанищк Draugen, на место которого приходит Equimanthorn. Вскоре группу заметил лейбл No Fashion Records, в результате чего был подписан договор на выпуск альбомов. В 1995 году Dark Funeral начинают запись своего дебютного альбома The Secrets of the Black Arts в студии Uni-Sound, однако из-за неудовлетворённости записью перемещаются в студию Abyss Studio, где вместе с Петером Тэгтгреном записывают то, чего добивались. После записи альбома группа впервые даёт концерт в рамках фестиваля — Under the Black Sun в Берлине. В преддверии выхода альбома снимается видеоклип на композицию The Secrets of the Black Arts. Кроме того в группе появляется новый вокалист — Emperor Magus Caligula. 28 января 1996 года увидел свет дебютный альбом. В составе появляются новые участники взамен ушедших — барабанщик Алзазмон и гитариста Тайфос. В поддержку дебютного альбома Dark Funeral совершают вместе с Necromass тур по Европе Satanic War Tour I. Помимо концертов группа записывает две кавер-версии для трибьют-альбома группы Bathory In Conspiracy With Satan — Call from the Grave и Equimanthorn.
В 1997 году Dark Funeral впервые выступают в США в рамках фестиваля Expo Of The Extreme. Кроме того организуется вторая часть тура по Европе Satanic War Tour II, но на этот раз вместе с Ancient и Bal-Sagoth. После концерта на фестивале Expo Of The Extreme группа отправляется в качестве поддержки Usurper в туре The American Satanic Crusade Tour по США. В сентябре 1996 года Dark Funeral направляются в студию Abyss Studio для записи второго полноформатного альбома Vobiscum Satanas.
1998—2004
1998 год знаменуется большим количеством концертов: тур The Ineffable Kings of Darkness Tour вместе с Enthroned и Liar of Golgotha, выступают на шведском фестивале Hultsfreds (после фестиваля из группы «увольняют» Тайфоса, ранее пришедший на роль басиста Dominion становится гитаристом, а Magus Caligula становится басистом-вокалистом. Перед туром Bleed for Satan вместе с Cannibal Corpse и Infernal Majesty происходит смена барабанщика — вместо Alzazmon появляется Gaahnfaust. В 1999 году продолжаются концерты: небольшой тур по США Black Plague Across the West, первые выступления в Мексике, а также один из самых масштабных туров Dark Funeral The Satanic Inquisition вместе с Dimmu Borgir.
В 2000 году в той же Abyss Studio записывается EP Teach Children to Worship Satan. На EP вошла новая композиция An Apprentice of Satan, а также кавер-версии композиций групп Sodom, Slayer, Mayhem и King Diamond. Кроме того на новую композицию снимается видеоклип. Далее в течение года продолжатся многочисленные концерты на фестивале No Mercy вместе с Immortal, Deicide и Cannibal Corpse, а также на одном из крупнейших метал-фестивалей в мире Wacken Open Air. В этом же году из группы уходит Gaahnfaust, на смену которому пришёл Matte Modin из Defleshed. Кроме того несколько участников группы обращаются к своим сайд-проектом — Magus Caligula работает над Dominion Caligula, Lord Ahriman над Wolfen Society. В этом же году переиздаётся первый релиз группы — EP 1994 года Dark Funeral с добавление новых фотографий и новым оформлением. В январе-феврале 2001 года производится запись третьего альбома группы под названием Diabolis Interium. После выпуска альбома последовали очередные концерты и туры — по Европе вместе с Anorexia Nervosa и Ragnarok (на басу играл Mikael Hedlund из Hypocrisy; по США с Cannibal Corpse (на басу играл Richard Cabeza). В октябре Dark Funeral совершают первый в истории западного экстремального метала тур по странам Дальнего Востока (Тайвань, Сингапур, Япония).[1] После этого тура из группы уходит гитарист Dominion. Однако вскоре на его место приходит Chaq Mol. С новым гитаристом Dark Funeral отправляются в турне по странам Южной Америки — Бразилии, Чили и Колумбии. В ходе турне были записаны многочисленные композиции, некоторые из которых легли в основу будущего концертного альбома De Profundis Clamavi Ad Te Domine.
В 2004 году группа уходит с лейбла No Fashion Records и подписывается на Regain Records (на котором вышел концертный альбом). После выхода альбома Dark Funeral играют концерты в Японии, Испании, Италии и Мексике.
Dark Funeral - Reissues 2013 (6 CD, 1994-2009)
[Profile]  [PM] 
Display posts:    
Reply to topic

Current time is: 21-Sep 04:22

All times are UTC + 2



You cannot post new topics in this forum
You cannot reply to topics in this forum
You cannot edit your posts in this forum
You cannot delete your posts in this forum
You cannot vote in polls in this forum
You cannot attach files in this forum
You cannot download files in this forum