(Ambient/Folk/Dungeon Synth) Burzum - The Ways Of Yore (2014), FLAC (image+.cue), lossless

Reply to topic
 
Author
Message

Rogvald ®

Gender: Male

Longevity: 11 years

Posts: 836

Reputation: 1006 [+] [-]

Rogvald · Post 22-Feb-2015 23:47

[Quote] 

Burzum / The Ways Of Yore
Жанр: Ambient/Folk/Dungeon Synth
Год издания: 2014
Издатель (лейбл): Byelobog Productions
Страна исполнителя (группы): Norway
Аудиокодек: FLAC (*.flac)
Тип рипа: image+.cue
Битрейт аудио: lossless
Продолжительность: 01:08:35
Источник (релизер): Диск из личной коллекции
Наличие сканов в содержимом раздачи: нет
Треклист:
1. God From The Machine
2. The Portal
3. Heill Odinn
4. Lady In The Lake
5. The Coming Of Ettins
6. The Reckoning Of Man
7. Heil Freyja
8. The Ways Of Yore
9. Ek Fellr (I Am Falling)
10. Hall Of The Fallen
11. Autumn Leaves
12. Emptiness
13. To Hel And Back Again

Лог создания рипа

Exact Audio Copy V1.0 beta 3 from 29. August 2011
EAC extraction logfile from 3. June 2014, 19:27
Burzum / The Ways Of Yore
Used drive : HL-DT-STDVDRAM GH70N Adapter: 0 ID: 0
Read mode : Secure
Utilize accurate stream : Yes
Defeat audio cache : Yes
Make use of C2 pointers : No
Read offset correction : 667
Overread into Lead-In and Lead-Out : No
Fill up missing offset samples with silence : Yes
Delete leading and trailing silent blocks : No
Null samples used in CRC calculations : Yes
Used interface : Native Win32 interface for Win NT & 2000
Used output format : Internal WAV Routines
Sample format : 44.100 Hz; 16 Bit; Stereo
TOC of the extracted CD
Track | Start | Length | Start sector | End sector
---------------------------------------------------------
1 | 0:00.00 | 1:40.28 | 0 | 7527
2 | 1:40.28 | 2:19.37 | 7528 | 17989
3 | 3:59.65 | 3:10.74 | 17990 | 32313
4 | 7:10.64 | 4:39.27 | 32314 | 53265
5 | 11:50.16 | 4:36.00 | 53266 | 73965
6 | 16:26.16 | 7:16.00 | 73966 | 106665
7 | 23:42.16 | 1:56.38 | 106666 | 115403
8 | 25:38.54 | 6:11.05 | 115404 | 143233
9 | 31:49.59 | 2:53.72 | 143234 | 156280
10 | 34:43.56 | 5:06.00 | 156281 | 179230
11 | 39:49.56 | 4:50.00 | 179231 | 200980
12 | 44:39.56 | 13:12.72 | 200981 | 260452
13 | 57:52.53 | 10:44.37 | 260453 | 308789
Range status and errors
Selected range
Filename C:\Users\NECRONOM\Downloads\Music\Burzum - The Ways Of Yore.wav
Peak level 99.9 %
Extraction speed 7.6 X
Range quality 100.0 %
Copy CRC 0C23160B
Copy OK
No errors occurred
AccurateRip summary
Track 1 not present in database
Track 2 not present in database
Track 3 not present in database
Track 4 not present in database
Track 5 not present in database
Track 6 not present in database
Track 7 not present in database
Track 8 not present in database
Track 9 not present in database
Track 10 not present in database
Track 11 not present in database
Track 12 not present in database
Track 13 not present in database
None of the tracks are present in the AccurateRip database
End of status report
==== Log checksum 7EB61EC2F4A559E3DB4C66B0A497D7022BC7233A3839DF2169796F71ED6A5B10 ====
[Profile]  [PM] 
Display posts:    
Reply to topic

Current time is: 22-Sep 15:38

All times are UTC + 2



You cannot post new topics in this forum
You cannot reply to topics in this forum
You cannot edit your posts in this forum
You cannot delete your posts in this forum
You cannot vote in polls in this forum
You cannot attach files in this forum
You cannot download files in this forum