(Black Metal) Marduk - Frontschwein (Limited Edition) (2015), FLAC (image+.cue), lossless

Reply to topic
 
Author
Message

Rogvald ®

Gender: Male

Longevity: 11 years

Posts: 836

Reputation: 1006 [+] [-]

Rogvald · Post 22-Nov-2015 17:41

[Quote] 

Marduk / Frontschwein (Limited Edition)
Жанр: Black Metal
Год издания: 2015
Издатель (лейбл): Century Media Records
Страна исполнителя (группы): Sweden
Аудиокодек: FLAC (*.flac)
Тип рипа: image+.cue
Битрейт аудио: lossless
Продолжительность: 55:37
Источник (релизер): Диск из личной коллекции
Наличие сканов в содержимом раздачи: нет
Треклист:
1. Frontschwein
2. The Blond Beast
3. Afrika
4. Wartheland
5. Rope Of Regret
6. Between The Wolf-Packs
7. Nebelwerfer
8. Falaise: Cauldron Of Blood
9. Doomsday Elite
10. 503
11. Thousand-Fold Death
12. Warschau III: Necropolis

Лог создания рипа

Exact Audio Copy V1.0 beta 3 from 29. August 2011
EAC extraction logfile from 24. January 2015, 16:06
Marduk / Frontschwein
Used drive : HL-DT-STDVDRAM GH70N Adapter: 0 ID: 0
Read mode : Secure
Utilize accurate stream : Yes
Defeat audio cache : Yes
Make use of C2 pointers : No
Read offset correction : 667
Overread into Lead-In and Lead-Out : No
Fill up missing offset samples with silence : Yes
Delete leading and trailing silent blocks : No
Null samples used in CRC calculations : Yes
Used interface : Native Win32 interface for Win NT & 2000
Used output format : Internal WAV Routines
Sample format : 44.100 Hz; 16 Bit; Stereo
TOC of the extracted CD
Track | Start | Length | Start sector | End sector
---------------------------------------------------------
1 | 0:00.00 | 3:11.74 | 0 | 14398
2 | 3:11.74 | 4:26.23 | 14399 | 34371
3 | 7:38.22 | 4:00.14 | 34372 | 52385
4 | 11:38.36 | 4:16.48 | 52386 | 71633
5 | 15:55.09 | 3:51.42 | 71634 | 89000
6 | 19:46.51 | 4:28.21 | 89001 | 109121
7 | 24:14.72 | 6:16.60 | 109122 | 137381
8 | 30:31.57 | 4:57.66 | 137382 | 159722
9 | 35:29.48 | 8:11.13 | 159723 | 196560
10 | 43:40.61 | 5:11.62 | 196561 | 219947
11 | 48:52.48 | 3:45.51 | 219948 | 236873
12 | 52:38.24 | 2:58.57 | 236874 | 250280
Range status and errors
Selected range
Filename C:\Users\NECRONOM\Downloads\Music\Marduk - Frontschwein.wav
Peak level 98.8 %
Extraction speed 7.4 X
Range quality 100.0 %
Test CRC D390DFA0
Copy CRC D390DFA0
Copy OK
No errors occurred
AccurateRip summary
Track 1 not present in database
Track 2 not present in database
Track 3 not present in database
Track 4 not present in database
Track 5 not present in database
Track 6 not present in database
Track 7 not present in database
Track 8 not present in database
Track 9 not present in database
Track 10 not present in database
Track 11 not present in database
Track 12 not present in database
None of the tracks are present in the AccurateRip database
End of status report
==== Log checksum 71B579716F6C48B0C8718B9D2A495C293C6E90464E847FEF039E7C7C7997E050 ====
[Profile]  [PM] 
Display posts:    
Reply to topic

Current time is: 19-Sep 12:02

All times are UTC + 2



You cannot post new topics in this forum
You cannot reply to topics in this forum
You cannot edit your posts in this forum
You cannot delete your posts in this forum
You cannot vote in polls in this forum
You cannot attach files in this forum
You cannot download files in this forum