(NWOBHM/Proto-Thrash/Speed Metal) Venom - 1987-1995 (8 CD, non-remastered) (1981-1991), FLAC (image+.cue), lossless

Reply to topic
 
Author
Message

Rogvald ®

Gender: Male

Longevity: 11 years

Posts: 836

Reputation: 1006 [+] [-]

Rogvald · Post 10-Dec-2016 21:44

[Quote] 

Venom / 1981-1991 (8 CD, non-remastered)
Жанр: NWOBHM/Proto-Thrash/Speed Metal
Год издания: 1987-1995
Издатель (лейбл): Neat Records / RoadraceR / Combat Records / Castle Communication / AJK Music / Under One Flag / Soundwings/Selected Sound Carrier AG
Номер по каталогу: RO 9707 2 / RO 9708 2 / 88561-8031-2 / CLACD 402 / NU 632-2 / CDFLAG36 / CDFLAG56 / 111.1101-2
Страна: Great Britain
Аудиокодек: FLAC (*.flac)
Тип рипа: image+.cue
Битрейт аудио: lossless
Продолжительность: 5:20:50.120 (848 930 292 samples)
Источник (релизер): eMule / Vampiro [MMT] / Shi [MMT] / apocalipsys2012
Наличие сканов в содержимом раздачи: частично
Треклист:

1981 - Welcome to Hell (Early, non-remastered press, DR=13)

-01. Sons Of Satan [3:37]
02. Welcome To Hell [3:13]
03. Schizo [3:30]
04. Mayhem With Mercy [0:59]
05. Poison [4:30]
06. Live Like An Angel, Die Like A Devil [3:56]
07. Witching Hour [3:40]
08. One Thousand Days In Sodom [4:34]
09. Angel Dust [2:41]
10. In League With Satan [3:33]
11. Red Light Fever [5:09]

1982 - Black Metal (Early, non-remastered press, DR=11)

-01. Black Metal [3:45]
02. To Hell And Back [3:04]
03. Buried Alive [4:19]
04. Raise The Dead [2:48]
05. Teachers Pet [4:46]
06. Leave Me In Hell [3:37]
07. Sacrifice [4:31]
08. Heavens On Fire [3:43]
09. Countess Bathory/Don't Burn The Witch/At War With Satan (introduction) [9:28]

1984 - At War With Satan (Non-Remastered US 1st Press CD with 2 bonus tracks)

-01. At War with Satan [20:03]
02. Manitou (Bonus Track) [3:03]
03. Rip Ride [3:09]
04. Genocide [2:59]
05. Cry Wolf [4:20]
06. Stand Up (And Be Counted) [3:32]
07. Women Leather and Hell [3:20]
08. Woman (Bonus Track) [2:57]
09. Aaaaargghh [2:22]

1985 - Possessed (Early, non-remastered press, DR=11)

-01. Powerdrive [3:15]
02. Flytrap [3:50]
03. Satanachist [2:43]
04. Burn This Place (To The Ground) [2:40]
05. Harmony Dies [2:43]
06. Possessed [4:51]
07. Hellchild [2:39]
08. Moonshine [3:17]
09. Wing And A Prayer [2:45]
10. Suffer Not The Children [3:06]
11. Voyeur [3:00]
12. Mystique [4:58]
13. Too Loud (For The Crowd) [2:58]

1987 - Calm Before The Storm (US 1st Press CD)

-01. Black Xmas [2:56]
02. The Chanting Of The Priests [4:24]
03. Metal Punk [3:23]
04. Under A Spell [4:09]
05. Calm Before The Storm [4:13]
06. Fire [2:43]
07. Krackin Up [2:14]
08. Beauty And The Beast [3:50]
09. Deadline [3:17]
10. Gypsy [2:25]
11. Muscle [2:42]

1989 - Prime Evil (Early, non-remastered press)

-01. Prime Evil [4:41]
02. Parasite [3:09]
03. Blackened Are The Priests [4:20]
04. Carnivorous [2:11]
05. Skeletal Dance [3:09]
06. Megalomania [5:25]
07. Insane [2:57]
08. Harder Than Ever [3:11]
09. Into The Fire [3:23]
10. Skool Daze [4:23]
11. Live Like An Angel - Die Like A Devil (Bonus Track) [3:05]

1991 - Temples Of Ice (Early, non-remastered press)

-01. Tribes [3:46]
02. Even in Heaven [3:57]
03. Trinity MCMXLV [3:34]
04. In Memory of (Paul Miller 1964-1990) [4:17]
05. Faerie Tale [4:21]
06. Playtime [3:19]
07. Acid [4:13]
08. Arachnid [2:42]
09. Speed King [3:33]
10. Temples of Ice [6:44]

1995 - Metal Punk (Calm Before The Storm, Reissued on CD in 1995 with alternative cover under the title "Metal Punk")

-01. Black X-Mas [2:57]
02. The Chanting Of The Priests [4:23]
03. Metal Punk [3:23]
04. Under A Spell [4:09]
05. Calm Before The Storm [4:13]
06. Fire [2:43]
07. Krackin' Up [2:15]
08. Beauty And The Beast [3:50]
09. Deadline [3:17]
10. Gypsy [2:25]
11. Muscle [2:42]
-Логи:

1981 - Welcome to Hell

Exact Audio Copy V1.0 beta 3 from 29. August 2011
EAC extraction logfile from 26. July 2013, 19:15
Venom / Welcome To Hell
Used drive : HL-DT-STDVDRAM GT20N Adapter: 0 ID: 0
Read mode : Secure
Utilize accurate stream : Yes
Defeat audio cache : Yes
Make use of C2 pointers : No
Read offset correction : 667
Overread into Lead-In and Lead-Out : No
Fill up missing offset samples with silence : Yes
Delete leading and trailing silent blocks : No
Null samples used in CRC calculations : Yes
Used interface : Installed external ASPI interface
Used output format : Internal WAV Routines
Sample format : 44.100 Hz; 16 Bit; Stereo
TOC of the extracted CD
Track | Start | Length | Start sector | End sector
---------------------------------------------------------
1 | 0:00.33 | 3:37.25 | 33 | 16332
2 | 3:37.58 | 3:12.50 | 16333 | 30782
3 | 6:50.33 | 3:30.00 | 30783 | 46532
4 | 10:20.33 | 0:59.25 | 46533 | 50982
5 | 11:19.58 | 4:30.25 | 50983 | 71257
6 | 15:50.08 | 3:56.25 | 71258 | 88982
7 | 19:46.33 | 3:39.50 | 88983 | 105457
8 | 23:26.08 | 4:34.00 | 105458 | 126007
9 | 28:00.08 | 2:41.00 | 126008 | 138082
10 | 30:41.08 | 3:33.00 | 138083 | 154057
11 | 34:14.08 | 5:08.60 | 154058 | 177217
Range status and errors
Selected range
Filename C:\Progs\Venom - Welcome To Hell\Venom - Welcome To Hell.wav
Peak level 100.0 %
Extraction speed 1.9 X
Range quality 100.0 %
Test CRC F8B5BE11
Copy CRC F8B5BE11
Copy OK
No errors occurred
AccurateRip summary
Track 1 accurately ripped (confidence 2) [291B3C32] (AR v2)
Track 2 accurately ripped (confidence 2) [36B02329] (AR v2)
Track 3 accurately ripped (confidence 2) [9CEBCA8E] (AR v2)
Track 4 accurately ripped (confidence 2) [90B2435B] (AR v2)
Track 5 accurately ripped (confidence 2) [BCBF9876] (AR v2)
Track 6 accurately ripped (confidence 2) [3F004892] (AR v2)
Track 7 accurately ripped (confidence 2) [CCDCB483] (AR v2)
Track 8 accurately ripped (confidence 2) [78C3D38A] (AR v2)
Track 9 accurately ripped (confidence 2) [520E422C] (AR v2)
Track 10 accurately ripped (confidence 2) [40A67943] (AR v2)
Track 11 accurately ripped (confidence 2) [8B7A3F66] (AR v2)
All tracks accurately ripped
End of status report
==== Log checksum 23BAA75B6A8F7A676F9D1FCADDFC57BA9E3212E7A470A104C998724529A9EE35 ====

1982 - Black Metal

Exact Audio Copy V1.0 beta 3 from 29. August 2011
EAC extraction logfile from 5. August 2013, 15:46
Venom / Black Metal
Used drive : HL-DT-STDVDRAM GT20N Adapter: 0 ID: 0
Read mode : Secure
Utilize accurate stream : Yes
Defeat audio cache : Yes
Make use of C2 pointers : No
Read offset correction : 667
Overread into Lead-In and Lead-Out : No
Fill up missing offset samples with silence : Yes
Delete leading and trailing silent blocks : No
Null samples used in CRC calculations : Yes
Used interface : Installed external ASPI interface
Used output format : User Defined Encoder
Selected bitrate : 32 kBit/s
Quality : High
Add ID3 tag : No
Command line compressor : C:\Progs\WavPack\wavpack.exe
Additional command line options : -h -d %source%
TOC of the extracted CD
Track | Start | Length | Start sector | End sector
---------------------------------------------------------
1 | 0:00.33 | 3:45.10 | 33 | 16917
2 | 3:45.43 | 3:04.10 | 16918 | 30727
3 | 6:49.53 | 4:18.62 | 30728 | 50139
4 | 11:08.40 | 2:48.20 | 50140 | 62759
5 | 13:56.60 | 4:45.63 | 62760 | 84197
6 | 18:42.48 | 3:37.07 | 84198 | 100479
7 | 22:19.55 | 4:30.70 | 100480 | 120799
8 | 26:50.50 | 3:42.58 | 120800 | 137507
9 | 30:33.33 | 9:28.00 | 137508 | 180107
Range status and errors
Selected range
Filename C:\TEMP\Venom - Black Metal.wav
Peak level 97.7 %
Extraction speed 1.9 X
Range quality 100.0 %
Test CRC AE6BB4A3
Copy CRC AE6BB4A3
Copy OK
No errors occurred
AccurateRip summary
Track 1 accurately ripped (confidence 2) [64337BB2] (AR v1)
Track 2 accurately ripped (confidence 2) [DD37E768] (AR v1)
Track 3 accurately ripped (confidence 2) [956D0A00] (AR v1)
Track 4 accurately ripped (confidence 2) [0C5A7CBC] (AR v1)
Track 5 accurately ripped (confidence 2) [27B65C06] (AR v1)
Track 6 accurately ripped (confidence 2) [A274B75D] (AR v1)
Track 7 accurately ripped (confidence 2) [1ECE5569] (AR v1)
Track 8 accurately ripped (confidence 2) [EB85E815] (AR v1)
Track 9 accurately ripped (confidence 2) [EC6FFA90] (AR v1)
All tracks accurately ripped
End of status report
==== Log checksum 8751AC4E1A89FAA0D361BA13FDF038AE0D09756CFB71FBD0EAABF591531E1503 ====

1984 - At War With Satan

Exact Audio Copy V1.0 beta 3 from 29. August 2011
EAC extraction logfile from 5. August 2013, 17:30
Venom / At War with Satan
Used drive : HL-DT-STDVDRAM GT20N Adapter: 0 ID: 0
Read mode : Secure
Utilize accurate stream : Yes
Defeat audio cache : Yes
Make use of C2 pointers : No
Read offset correction : 667
Overread into Lead-In and Lead-Out : No
Fill up missing offset samples with silence : Yes
Delete leading and trailing silent blocks : No
Null samples used in CRC calculations : Yes
Used interface : Installed external ASPI interface
Used output format : User Defined Encoder
Selected bitrate : 32 kBit/s
Quality : High
Add ID3 tag : No
Command line compressor : C:\Progs\WavPack\wavpack.exe
Additional command line options : -h -d %source%
TOC of the extracted CD
Track | Start | Length | Start sector | End sector
---------------------------------------------------------
1 | 0:00.15 | 20:03.22 | 15 | 90261
2 | 20:03.37 | 3:02.45 | 90262 | 103956
3 | 23:06.07 | 3:09.33 | 103957 | 118164
4 | 26:15.40 | 2:58.70 | 118165 | 131584
5 | 29:14.35 | 4:19.42 | 131585 | 151051
6 | 33:34.02 | 3:32.30 | 151052 | 166981
7 | 37:06.32 | 3:19.55 | 166982 | 181961
8 | 40:26.12 | 2:56.63 | 181962 | 195224
9 | 43:23.00 | 2:21.45 | 195225 | 205844
Range status and errors
Selected range
Filename C:\TEMP\Venom - At War with Satan.wav
Peak level 100.0 %
Extraction speed 2.0 X
Range quality 100.0 %
Test CRC AACDD6D0
Copy CRC AACDD6D0
Copy OK
No errors occurred
AccurateRip summary
Track 1 accurately ripped (confidence 2) [0928166F] (AR v2)
Track 2 accurately ripped (confidence 2) [3A736C25] (AR v2)
Track 3 accurately ripped (confidence 2) [73ADA33A] (AR v2)
Track 4 accurately ripped (confidence 2) [61418EED] (AR v2)
Track 5 accurately ripped (confidence 2) [FCE0AE3C] (AR v2)
Track 6 accurately ripped (confidence 2) [6E7B0BD4] (AR v2)
Track 7 accurately ripped (confidence 2) [8C1C4836] (AR v2)
Track 8 accurately ripped (confidence 2) [8359011D] (AR v2)
Track 9 accurately ripped (confidence 2) [AFB567D0] (AR v2)
All tracks accurately ripped
End of status report
==== Log checksum 5A045FCC52B186FB19DAA4C478F9E8C264B08D93A3B266927F9591FB3FB35554 ====

1985 - Possessed

Exact Audio Copy V1.0 beta 3 from 29. August 2011
EAC extraction logfile from 5. August 2013, 14:22
Venom / Possessed
Used drive : HL-DT-STDVDRAM GT20N Adapter: 0 ID: 0
Read mode : Secure
Utilize accurate stream : Yes
Defeat audio cache : Yes
Make use of C2 pointers : No
Read offset correction : 667
Overread into Lead-In and Lead-Out : No
Fill up missing offset samples with silence : Yes
Delete leading and trailing silent blocks : No
Null samples used in CRC calculations : Yes
Used interface : Installed external ASPI interface
Used output format : User Defined Encoder
Selected bitrate : 32 kBit/s
Quality : High
Add ID3 tag : No
Command line compressor : C:\Progs\WavPack\wavpack.exe
Additional command line options : -h -d %source%
TOC of the extracted CD
Track | Start | Length | Start sector | End sector
---------------------------------------------------------
1 | 0:00.00 | 3:15.00 | 0 | 14624
2 | 3:15.00 | 3:49.70 | 14625 | 31869
3 | 7:04.70 | 2:43.05 | 31870 | 44099
4 | 9:48.00 | 2:40.22 | 44100 | 56121
5 | 12:28.22 | 2:42.58 | 56122 | 68329
6 | 15:11.05 | 4:50.70 | 68330 | 90149
7 | 20:02.00 | 2:39.22 | 90150 | 102096
8 | 22:41.22 | 3:17.23 | 102097 | 116894
9 | 25:58.45 | 2:44.72 | 116895 | 129266
10 | 28:43.42 | 3:06.35 | 129267 | 143251
11 | 31:50.02 | 3:00.18 | 143252 | 156769
12 | 34:50.20 | 4:58.17 | 156770 | 179136
13 | 39:48.37 | 2:58.03 | 179137 | 192489
Range status and errors
Selected range
Filename C:\TEMP\Venom - Possessed.wav
Peak level 98.4 %
Extraction speed 1.9 X
Range quality 100.0 %
Test CRC 740F99A2
Copy CRC 740F99A2
Copy OK
No errors occurred
AccurateRip summary
Track 1 accurately ripped (confidence 2) [745B20A9] (AR v2)
Track 2 accurately ripped (confidence 2) [D646CEBF] (AR v2)
Track 3 accurately ripped (confidence 2) [13475595] (AR v2)
Track 4 accurately ripped (confidence 2) [F783B74B] (AR v2)
Track 5 accurately ripped (confidence 2) [DFBCD713] (AR v2)
Track 6 accurately ripped (confidence 2) [924C98AC] (AR v2)
Track 7 accurately ripped (confidence 2) [6F67850F] (AR v2)
Track 8 accurately ripped (confidence 2) [63D9450B] (AR v2)
Track 9 accurately ripped (confidence 2) [386B99FA] (AR v2)
Track 10 accurately ripped (confidence 2) [F7E12FA4] (AR v2)
Track 11 accurately ripped (confidence 2) [33B764D9] (AR v2)
Track 12 accurately ripped (confidence 2) [730364CF] (AR v2)
Track 13 accurately ripped (confidence 2) [C166F5E1] (AR v2)
All tracks accurately ripped
End of status report
==== Log checksum C7ED2D4BD7A9BDC78007EF604841448CEF04687FD66A102B0DB3D2680AFB57E5 ====

1987 - Calm Before The Storm

Exact Audio Copy V1.0 beta 1 from 15. November 2010
EAC extraction logfile from 27. October 2012, 17:30
Venom / Calm Before The Storm
Used drive : PLEXTOR DVDR PX-L890SA Adapter: 5 ID: 1
Read mode : Secure
Utilize accurate stream : Yes
Defeat audio cache : Yes
Make use of C2 pointers : No
Read offset correction : 6
Overread into Lead-In and Lead-Out : No
Fill up missing offset samples with silence : Yes
Delete leading and trailing silent blocks : No
Null samples used in CRC calculations : Yes
Used interface : Native Win32 interface for Win NT & 2000
Used output format : User Defined Encoder
Selected bitrate : 768 kBit/s
Quality : High
Add ID3 tag : No
Command line compressor : C:\Program Files (x86)\Exact Audio Copy\FLAC\FLAC.EXE
Additional command line options : -6 -V -T "ARTIST=%a" -T "TITLE=%t" -T "ALBUM=%g" -T "DATE=%y" -T "TRACKNUMBER=%n" -T "GENRE=%m" -T "COMMENT=%e" %j--picture="%i"%j %s -o %d
TOC of the extracted CD
Track | Start | Length | Start sector | End sector
---------------------------------------------------------
1 | 0:00.00 | 2:56.25 | 0 | 13224
2 | 2:56.25 | 4:24.35 | 13225 | 33059
3 | 7:20.60 | 3:23.37 | 33060 | 48321
4 | 10:44.22 | 4:08.73 | 48322 | 66994
5 | 14:53.20 | 4:13.30 | 66995 | 85999
6 | 19:06.50 | 2:42.45 | 86000 | 98194
7 | 21:49.20 | 2:14.35 | 98195 | 108279
8 | 24:03.55 | 3:49.40 | 108280 | 125494
9 | 27:53.20 | 3:16.42 | 125495 | 140236
10 | 31:09.62 | 2:25.20 | 140237 | 151131
11 | 33:35.07 | 2:42.13 | 151132 | 163294
Range status and errors
Selected range
Filename D:\MeTaLMaDNeSS.TeaM\Venom (UK) - Calm Before The Storm\Venom - Calm Before The Storm.wav
Peak level 100.0 %
Extraction speed 0.5 X
Range quality 99.9 %
Test CRC 77B85E66
Copy CRC 77B85E66
Copy OK
No errors occurred
AccurateRip summary
Track 1 accurately ripped (confidence 1) [8B09625B]
Track 2 accurately ripped (confidence 1) [5500850A]
Track 3 accurately ripped (confidence 1) [173EA0CD]
Track 4 accurately ripped (confidence 1) [E02B84FD]
Track 5 accurately ripped (confidence 1) [D3E375A2]
Track 6 accurately ripped (confidence 1) [1C6C2C4E]
Track 7 accurately ripped (confidence 1) [0D18CC75]
Track 8 accurately ripped (confidence 1) [69D20020]
Track 9 accurately ripped (confidence 1) [6551FD87]
Track 10 accurately ripped (confidence 1) [FC2F20D1]
Track 11 accurately ripped (confidence 1) [B3AF42E7]
All tracks accurately ripped
End of status report

1989 - Prime Evil

Exact Audio Copy V1.0 beta 3 from 29. August 2011
EAC extraction logfile from 14. August 2013, 14:38
Venom / Prime Evil
Used drive : HL-DT-STDVDRAM GT20N Adapter: 0 ID: 0
Read mode : Secure
Utilize accurate stream : Yes
Defeat audio cache : Yes
Make use of C2 pointers : No
Read offset correction : 667
Overread into Lead-In and Lead-Out : No
Fill up missing offset samples with silence : Yes
Delete leading and trailing silent blocks : No
Null samples used in CRC calculations : Yes
Used interface : Installed external ASPI interface
Used output format : User Defined Encoder
Selected bitrate : 32 kBit/s
Quality : High
Add ID3 tag : No
Command line compressor : C:\Progs\WavPack\wavpack.exe
Additional command line options : -h -d %source%
TOC of the extracted CD
Track | Start | Length | Start sector | End sector
---------------------------------------------------------
1 | 0:00.33 | 4:41.17 | 33 | 21124
2 | 4:41.50 | 3:08.73 | 21125 | 35297
3 | 7:50.48 | 4:19.70 | 35298 | 54792
4 | 12:10.43 | 2:11.35 | 54793 | 64652
5 | 14:22.03 | 3:09.32 | 64653 | 78859
6 | 17:31.35 | 5:25.03 | 78860 | 103237
7 | 22:56.38 | 2:57.02 | 103238 | 116514
8 | 25:53.40 | 3:11.20 | 116515 | 130859
9 | 29:04.60 | 3:22.70 | 130860 | 146079
10 | 32:27.55 | 4:22.43 | 146080 | 165772
11 | 36:50.23 | 3:05.02 | 165773 | 179649
Range status and errors
Selected range
Filename C:\TEMP\Venom - Prime Evil.wav
Peak level 100.0 %
Extraction speed 1.9 X
Range quality 100.0 %
Test CRC F737540A
Copy CRC F737540A
Copy OK
No errors occurred
AccurateRip summary
Track 1 accurately ripped (confidence 4) [402E9D06] (AR v2)
Track 2 accurately ripped (confidence 4) [9D8EDADE] (AR v2)
Track 3 accurately ripped (confidence 4) [84E416CB] (AR v2)
Track 4 accurately ripped (confidence 4) [0EB276F9] (AR v2)
Track 5 accurately ripped (confidence 4) [C362F9F5] (AR v2)
Track 6 accurately ripped (confidence 4) [A03D2DBF] (AR v2)
Track 7 accurately ripped (confidence 4) [1593DC2E] (AR v2)
Track 8 accurately ripped (confidence 4) [18AF8A2A] (AR v2)
Track 9 accurately ripped (confidence 4) [069C9677] (AR v2)
Track 10 accurately ripped (confidence 4) [A6F982AA] (AR v2)
Track 11 accurately ripped (confidence 4) [55196CA2] (AR v2)
All tracks accurately ripped
End of status report
==== Log checksum 6D6B0248D0D8273970B3036F7C6416A3232EB65CA29A5D49F898ED32EAEA76BA ====

1991 - Temples Of Ice

Exact Audio Copy V1.0 beta 3 from 29. August 2011
EAC extraction logfile from 13. August 2013, 15:31
Venom / Temples Of Ice
Used drive : HL-DT-STDVDRAM GT20N Adapter: 0 ID: 0
Read mode : Secure
Utilize accurate stream : Yes
Defeat audio cache : Yes
Make use of C2 pointers : No
Read offset correction : 667
Overread into Lead-In and Lead-Out : No
Fill up missing offset samples with silence : Yes
Delete leading and trailing silent blocks : No
Null samples used in CRC calculations : Yes
Used interface : Installed external ASPI interface
Used output format : User Defined Encoder
Selected bitrate : 32 kBit/s
Quality : High
Add ID3 tag : No
Command line compressor : C:\Progs\WavPack\wavpack.exe
Additional command line options : -h -d %source%
TOC of the extracted CD
Track | Start | Length | Start sector | End sector
---------------------------------------------------------
1 | 0:00.33 | 3:45.42 | 33 | 16949
2 | 3:46.00 | 3:57.08 | 16950 | 34732
3 | 7:43.08 | 3:33.62 | 34733 | 50769
4 | 11:16.70 | 4:17.23 | 50770 | 70067
5 | 15:34.18 | 4:21.30 | 70068 | 89672
6 | 19:55.48 | 3:18.55 | 89673 | 104577
7 | 23:14.28 | 4:13.30 | 104578 | 123582
8 | 27:27.58 | 2:42.25 | 123583 | 135757
9 | 30:10.08 | 3:33.02 | 135758 | 151734
10 | 33:43.10 | 6:44.23 | 151735 | 182057
Range status and errors
Selected range
Filename C:\TEMP\Venom - Temples Of Ice.wav
Peak level 99.5 %
Extraction speed 1.9 X
Range quality 100.0 %
Test CRC 1CB2922E
Copy CRC 1CB2922E
Copy OK
No errors occurred
AccurateRip summary
Track 1 accurately ripped (confidence 4) [3ED7F7A0] (AR v2)
Track 2 accurately ripped (confidence 4) [B990C18E] (AR v2)
Track 3 accurately ripped (confidence 4) [420D1726] (AR v2)
Track 4 accurately ripped (confidence 4) [D9DD94FD] (AR v2)
Track 5 accurately ripped (confidence 4) [A8B91481] (AR v2)
Track 6 accurately ripped (confidence 4) [99B32C75] (AR v2)
Track 7 accurately ripped (confidence 4) [13FCBF2A] (AR v2)
Track 8 accurately ripped (confidence 4) [8E41362B] (AR v2)
Track 9 accurately ripped (confidence 4) [288725EC] (AR v2)
Track 10 accurately ripped (confidence 4) [9A4E9EE7] (AR v2)
All tracks accurately ripped
End of status report
==== Log checksum 0305B640973217600ACDD13A15D848F2D5F7F6A78BEEC6FFEB23E9D9C3FF630B ====

1995 - Metal Punk

Exact Audio Copy V1.0 beta 3 from 29. August 2011
EAC extraction logfile from 12. September 2013, 17:18
Venom / Metal Punk
Used drive : HL-DT-STDVDRAM GT20N Adapter: 0 ID: 0
Read mode : Secure
Utilize accurate stream : Yes
Defeat audio cache : Yes
Make use of C2 pointers : No
Read offset correction : 667
Overread into Lead-In and Lead-Out : No
Fill up missing offset samples with silence : Yes
Delete leading and trailing silent blocks : No
Null samples used in CRC calculations : Yes
Used interface : Installed external ASPI interface
Used output format : Internal WAV Routines
Sample format : 44.100 Hz; 16 Bit; Stereo
TOC of the extracted CD
Track | Start | Length | Start sector | End sector
---------------------------------------------------------
1 | 0:00.33 | 2:57.12 | 33 | 13319
2 | 2:57.45 | 4:23.25 | 13320 | 33069
3 | 7:20.70 | 3:22.63 | 33070 | 48282
4 | 10:43.58 | 4:09.15 | 48283 | 66972
5 | 14:52.73 | 4:13.22 | 66973 | 85969
6 | 19:06.20 | 2:42.50 | 85970 | 98169
7 | 21:48.70 | 2:14.38 | 98170 | 108257
8 | 24:03.33 | 3:49.45 | 108258 | 125477
9 | 27:53.03 | 3:16.42 | 125478 | 140219
10 | 31:09.45 | 2:25.20 | 140220 | 151114
11 | 33:34.65 | 2:42.10 | 151115 | 163274
Range status and errors
Selected range
Filename C:\TEMP\Venom - Metal Punk.wav
Peak level 99.2 %
Extraction speed 3.7 X
Range quality 100.0 %
Test CRC 984D6C37
Copy CRC 984D6C37
Copy OK
No errors occurred
AccurateRip summary
Track 1 accurately ripped (confidence 3) [6D5F52F5] (AR v2)
Track 2 accurately ripped (confidence 3) [05B1FB5A] (AR v2)
Track 3 accurately ripped (confidence 3) [654CFB77] (AR v2)
Track 4 accurately ripped (confidence 3) [BE9F92B6] (AR v2)
Track 5 accurately ripped (confidence 3) [2BEEAC50] (AR v2)
Track 6 accurately ripped (confidence 3) [E3806E37] (AR v2)
Track 7 accurately ripped (confidence 3) [39CBA9C3] (AR v2)
Track 8 accurately ripped (confidence 3) [ACD61AE9] (AR v2)
Track 9 accurately ripped (confidence 3) [2DEA3280] (AR v2)
Track 10 accurately ripped (confidence 3) [93AAA99F] (AR v2)
Track 11 accurately ripped (confidence 3) [B79B98A1] (AR v2)
All tracks accurately ripped
End of status report
==== Log checksum 58C60D7994D138F5BDB54C17FBB4EB25AF3E063280C30C77B78B3C00CA86DC6C ====
-
[Profile]  [PM] 
Display posts:    
Reply to topic

Current time is: 26-Sep 10:18

All times are UTC + 2



You cannot post new topics in this forum
You cannot reply to topics in this forum
You cannot edit your posts in this forum
You cannot delete your posts in this forum
You cannot vote in polls in this forum
You cannot attach files in this forum
You cannot download files in this forum