(Black Metal) Immortal - 8 CD (1st press, LE) (1992-2009), FLAC (image+.cue), lossless

Reply to topic
 
Author
Message

Rogvald ®

Gender: Male

Longevity: 11 years

Posts: 836

Reputation: 1006 [+] [-]

Rogvald · Post 03-May-2013 17:22

[Quote] 


Жанр: Black Metal
Страна-производитель дисков: Austria, Germany, United Kingdom
Год издания: 1992 - 2009
Лейбл: Osmose Productions, Nuclear Blast
Номера по каталогу: OPCD 007, OPCD 019, OPCD 027, OPCD 051,
OPCD 079, OPCDL 095, NB 612 - 2, NB 2303 - 02
Страна: Norway
Аудиокодек: FLAC (*.flac)
Тип рипа: image+.cue, Test & Copy
Битрейт аудио: lossless
Продолжительность: 04:31:17
Источник: Original CDs
Полиграфия: да, 600dpi

1992 - Diabolical Fullmoon Mysticism

Трэклист:
01. Intro (01:35)
02. The Call of the Wintermoon (05:40)
03. Unholy Forces of Evil (04:28)
04. Cryptic Winterstorms (06:08)
05. Cold Winds of Funeral Dust (03:47)
06. Blacker than Darkness (04:17)
07. A Perfect Vision of the Rising Northland (09:03)

EAC log:

Exact Audio Copy V1.0 beta 3 from 29. August 2011
EAC extraction logfile from 25. December 2012, 14:18
Immortal / Diabolical Fullmoon Mysticism
Used drive : PIONEER DVD-RW DVR-112D Adapter: 0 ID: 0
Read mode : Secure
Utilize accurate stream : Yes
Defeat audio cache : Yes
Make use of C2 pointers : No
Read offset correction : 48
Overread into Lead-In and Lead-Out : No
Fill up missing offset samples with silence : Yes
Delete leading and trailing silent blocks : No
Null samples used in CRC calculations : Yes
Used interface : Native Win32 interface for Win NT & 2000
Used output format : User Defined Encoder
Selected bitrate : 128 kBit/s
Quality : High
Add ID3 tag : No
Command line compressor : C:\Program Files (x86)\Exact Audio Copy\FLAC\FLAC.EXE
Additional command line options : -8 -V -T "ARTIST=%artist%" -T "TITLE=%title%" -T "ALBUM=%albumtitle%" -T "DATE=%year%" -T "TRACKNUMBER=%tracknr%" -T "GENRE=%genre%" -T "COMMENT=EAC FLAC -8" %source%
TOC of the extracted CD
Track | Start | Length | Start sector | End sector
---------------------------------------------------------
1 | 0:00.32 | 1:34.63 | 32 | 7144
2 | 1:35.20 | 5:39.67 | 7145 | 32636
3 | 7:15.12 | 4:28.25 | 32637 | 52761
4 | 11:43.37 | 6:07.73 | 52762 | 80359
5 | 17:51.35 | 3:47.27 | 80360 | 97411
6 | 21:38.62 | 4:16.68 | 97412 | 116679
7 | 25:55.55 | 9:03.25 | 116680 | 157429
Range status and errors
Selected range
Filename H:\Immortal - Diabolical Fullmoon Mysticism\Immortal - Diabolical Fullmoon Mysticism.wav
Peak level 99.0 %
Extraction speed 6.3 X
Range quality 100.0 %
Test CRC C95F8207
Copy CRC C95F8207
Copy OK
No errors occurred
AccurateRip summary
Track 1 cannot be verified as accurate (confidence 10) [393C9D6E], AccurateRip returned [FF64CE57] (AR v2)
Track 2 cannot be verified as accurate (confidence 10) [831644C2], AccurateRip returned [7569DA15] (AR v2)
Track 3 cannot be verified as accurate (confidence 10) [EF0106B5], AccurateRip returned [2A1F15F8] (AR v2)
Track 4 cannot be verified as accurate (confidence 10) [92A7C6F3], AccurateRip returned [21344B45] (AR v2)
Track 5 cannot be verified as accurate (confidence 10) [26E23DB1], AccurateRip returned [04C1067C] (AR v2)
Track 6 cannot be verified as accurate (confidence 10) [CD036394], AccurateRip returned [E4F11F55] (AR v2)
Track 7 cannot be verified as accurate (confidence 10) [AD27C806], AccurateRip returned [A3A4EB22] (AR v2)
No tracks could be verified as accurate
You may have a different pressing from the one(s) in the database
End of status report
---- CUETools DB Plugin V2.1.4
[CTDB TOCID: _ySUMSDlDOvpyoeZmRQqfIVd.Fw-] found
Submit result: _ySUMSDlDOvpyoeZmRQqfIVd.Fw- has been uploaded
Track | CTDB Status
1 | (1/2) Accurately ripped
2 | (1/2) Accurately ripped
3 | (1/2) Accurately ripped
4 | (1/2) Accurately ripped
5 | (1/2) Accurately ripped
6 | (1/2) Accurately ripped
7 | (1/2) Accurately ripped
If you are sure that your rip contains errors, you can use CUETools to repair it.
==== Log checksum 2B6D45440CE85B30FE9BFC3C0A9B5261AE4BB277DF00CC228872D06C60046437 ====

1993 - Pure Holocaust

Трэклист:
01. Unsilent Storms In The North Abyss (03:15)
02. A Sign For The Norse Hordes To Ride (02:35)
03. The Sun No Longer Rises (04:20)
04. Frozen By Icewinds (04:40)
05. Storming Through Red Clouds And Holocaustwinds (04:39)
06. Eternal Years On The Path To The Cemetary Gates (03:31)
07. As The Eternity Opens (05:31)
08. Pure Holocaust (05:16)

EAC log:

Exact Audio Copy V1.0 beta 3 from 29. August 2011
EAC extraction logfile from 9. October 2012, 7:29
Immortal / Pure Holocaust
Used drive : PIONEER DVD-RW DVR-112D Adapter: 0 ID: 0
Read mode : Secure
Utilize accurate stream : Yes
Defeat audio cache : Yes
Make use of C2 pointers : No
Read offset correction : 48
Overread into Lead-In and Lead-Out : No
Fill up missing offset samples with silence : Yes
Delete leading and trailing silent blocks : No
Null samples used in CRC calculations : Yes
Used interface : Native Win32 interface for Win NT & 2000
Used output format : User Defined Encoder
Selected bitrate : 128 kBit/s
Quality : High
Add ID3 tag : No
Command line compressor : C:\Program Files (x86)\Exact Audio Copy\FLAC\FLAC.EXE
Additional command line options : -8 -V -T "ARTIST=%artist%" -T "TITLE=%title%" -T "ALBUM=%albumtitle%" -T "DATE=%year%" -T "TRACKNUMBER=%tracknr%" -T "GENRE=%genre%" -T "COMMENT=EAC FLAC -8" %source%
TOC of the extracted CD
Track | Start | Length | Start sector | End sector
---------------------------------------------------------
1 | 0:00.30 | 3:14.39 | 30 | 14618
2 | 3:14.69 | 2:35.04 | 14619 | 26247
3 | 5:49.73 | 4:19.66 | 26248 | 45738
4 | 10:09.64 | 4:40.05 | 45739 | 66743
5 | 14:49.69 | 4:39.24 | 66744 | 87692
6 | 19:29.18 | 3:30.55 | 87693 | 103497
7 | 22:59.73 | 5:30.71 | 103498 | 128318
8 | 28:30.69 | 5:16.06 | 128319 | 152024
Range status and errors
Selected range
Filename H:\Immortal - Pure Holocaust\Immortal - Pure Holocaust.wav
Peak level 100.0 %
Extraction speed 2.3 X
Range quality 100.0 %
Test CRC 9A66D284
Copy CRC 9A66D284
Copy OK
No errors occurred
AccurateRip summary
Track 1 accurately ripped (confidence 6) [1F17DF31] (AR v1)
Track 2 accurately ripped (confidence 6) [F1BCCBAC] (AR v1)
Track 3 accurately ripped (confidence 6) [F23E3159] (AR v1)
Track 4 accurately ripped (confidence 6) [E4F60AB1] (AR v1)
Track 5 accurately ripped (confidence 6) [6564DF36] (AR v1)
Track 6 accurately ripped (confidence 6) [FE10C553] (AR v1)
Track 7 accurately ripped (confidence 6) [DD7DA49F] (AR v1)
Track 8 accurately ripped (confidence 6) [D8A8CB50] (AR v1)
All tracks accurately ripped
End of status report
---- CUETools DB Plugin V2.1.4
[CTDB TOCID: lu3pNi4p_QY0TjyuR4CEBEkXiM0-] found
Submit result: lu3pNi4p_QY0TjyuR4CEBEkXiM0- has been confirmed
Track | CTDB Status
1 | (4/4) Accurately ripped
2 | (4/4) Accurately ripped
3 | (4/4) Accurately ripped
4 | (4/4) Accurately ripped
5 | (4/4) Accurately ripped
6 | (4/4) Accurately ripped
7 | (4/4) Accurately ripped
8 | (4/4) Accurately ripped
==== Log checksum 28BE236CFDAB74856CC684C91CDDFF1D5F5FF520AC5F97BB023916BF49605810 ====

1995 - Battles In The North (LE, Embossed Digipak)

Трэклист:
01. Battles In The North (04:12)
02. Grim And Frostbitten Kingdoms (02:47)
03. Descent Into Eminent Silence (03:10)
04. Throned By Blackstorms (03:39)
05. Moonrise Fields Of Sorrow (02:25)
06. Cursed Realms Of The Winterdemons (03:59)
07. At The Stormy Gates Of Mist (03:00)
08. Through The Halls Of Eternity 03:36
09. Circling Above In Time Before Time (03:56)
10. Blashyrkh (Mighty Ravendark) (04:35)

EAC log:

Exact Audio Copy V1.0 beta 3 from 29. August 2011
EAC extraction logfile from 9. October 2012, 8:45
Immortal / Battles In The North
Used drive : PIONEER DVD-RW DVR-112D Adapter: 0 ID: 0
Read mode : Secure
Utilize accurate stream : Yes
Defeat audio cache : Yes
Make use of C2 pointers : No
Read offset correction : 48
Overread into Lead-In and Lead-Out : No
Fill up missing offset samples with silence : Yes
Delete leading and trailing silent blocks : No
Null samples used in CRC calculations : Yes
Used interface : Native Win32 interface for Win NT & 2000
Used output format : User Defined Encoder
Selected bitrate : 128 kBit/s
Quality : High
Add ID3 tag : No
Command line compressor : C:\Program Files (x86)\Exact Audio Copy\FLAC\FLAC.EXE
Additional command line options : -8 -V -T "ARTIST=%artist%" -T "TITLE=%title%" -T "ALBUM=%albumtitle%" -T "DATE=%year%" -T "TRACKNUMBER=%tracknr%" -T "GENRE=%genre%" -T "COMMENT=EAC FLAC -8" %source%
TOC of the extracted CD
Track | Start | Length | Start sector | End sector
---------------------------------------------------------
1 | 0:00.30 | 4:11.73 | 30 | 18927
2 | 4:12.28 | 2:47.35 | 18928 | 31487
3 | 6:59.63 | 3:09.65 | 31488 | 45727
4 | 10:09.53 | 3:38.57 | 45728 | 62134
5 | 13:48.35 | 2:24.57 | 62135 | 72991
6 | 16:13.17 | 3:59.20 | 72992 | 90936
7 | 20:12.37 | 2:59.69 | 90937 | 104430
8 | 23:12.31 | 3:35.57 | 104431 | 120612
9 | 26:48.13 | 3:56.00 | 120613 | 138312
10 | 30:44.13 | 4:34.44 | 138313 | 158906
Range status and errors
Selected range
Filename H:\Immortal - Battles In The North\Immortal - Battles In The North.wav
Peak level 96.7 %
Extraction speed 3.8 X
Range quality 100.0 %
Test CRC 2FC32C6D
Copy CRC 2FC32C6D
Copy OK
No errors occurred
AccurateRip summary
Track 1 accurately ripped (confidence 4) [4EA4ACA2] (AR v1)
Track 2 accurately ripped (confidence 4) [CE4E4D32] (AR v1)
Track 3 accurately ripped (confidence 4) [9C4F53F2] (AR v1)
Track 4 accurately ripped (confidence 4) [6F9EDF82] (AR v1)
Track 5 accurately ripped (confidence 4) [99236BCC] (AR v1)
Track 6 accurately ripped (confidence 4) [6040A36E] (AR v1)
Track 7 accurately ripped (confidence 4) [999FE71A] (AR v1)
Track 8 accurately ripped (confidence 4) [C4F8892A] (AR v1)
Track 9 accurately ripped (confidence 4) [35412971] (AR v1)
Track 10 accurately ripped (confidence 4) [9C389F41] (AR v1)
All tracks accurately ripped
End of status report
---- CUETools DB Plugin V2.1.4
[CTDB TOCID: CEPioN5pF63.unhsTpcYNdlvzrQ-] found
Submit result: CEPioN5pF63.unhsTpcYNdlvzrQ- has been confirmed
Track | CTDB Status
1 | (4/4) Accurately ripped
2 | (4/4) Accurately ripped
3 | (4/4) Accurately ripped
4 | (4/4) Accurately ripped
5 | (4/4) Accurately ripped
6 | (4/4) Accurately ripped
7 | (4/4) Accurately ripped
8 | (4/4) Accurately ripped
9 | (4/4) Accurately ripped
10 | (4/4) Accurately ripped
==== Log checksum 11318DC3F2C20A91C63F73829BFF77D325D88FAE136CEA664479143188C3661E ====

1997 - Blizzard Beasts (LE, Engraved Logo Jewel Case)

Трэклист:
01. Intro (01:00)
02. Blizzard Beasts (02:50)
03. Nebular Ravens Winter (04:13)
04. Suns That Sank Below (02:47)
05. Battlefields (03:40)
06. Mountains of Might (06:38)
07. Noctambulant (02:23)
08. Winter of the Ages (02:32)
09. Frostdemonstorm (02:54)

EAC log:

Exact Audio Copy V1.0 beta 3 from 29. August 2011
EAC extraction logfile from 9. October 2012, 7:52
Immortal / Blizzard Beasts
Used drive : PIONEER DVD-RW DVR-112D Adapter: 0 ID: 0
Read mode : Secure
Utilize accurate stream : Yes
Defeat audio cache : Yes
Make use of C2 pointers : No
Read offset correction : 48
Overread into Lead-In and Lead-Out : No
Fill up missing offset samples with silence : Yes
Delete leading and trailing silent blocks : No
Null samples used in CRC calculations : Yes
Used interface : Native Win32 interface for Win NT & 2000
Used output format : User Defined Encoder
Selected bitrate : 128 kBit/s
Quality : High
Add ID3 tag : No
Command line compressor : C:\Program Files (x86)\Exact Audio Copy\FLAC\FLAC.EXE
Additional command line options : -8 -V -T "ARTIST=%artist%" -T "TITLE=%title%" -T "ALBUM=%albumtitle%" -T "DATE=%year%" -T "TRACKNUMBER=%tracknr%" -T "GENRE=%genre%" -T "COMMENT=EAC FLAC -8" %source%
TOC of the extracted CD
Track | Start | Length | Start sector | End sector
---------------------------------------------------------
1 | 0:00.00 | 1:00.04 | 0 | 4503
2 | 1:00.04 | 2:49.59 | 4504 | 17237
3 | 3:49.63 | 4:12.59 | 17238 | 36196
4 | 8:02.47 | 2:46.44 | 36197 | 48690
5 | 10:49.16 | 3:40.05 | 48691 | 65195
6 | 14:29.21 | 6:37.54 | 65196 | 95024
7 | 21:07.00 | 2:22.74 | 95025 | 105748
8 | 23:29.74 | 2:32.29 | 105749 | 117177
9 | 26:02.28 | 2:53.68 | 117178 | 130220
Range status and errors
Selected range
Filename H:\Immortal - Blizzard Beasts\Immortal - Blizzard Beasts.wav
Peak level 100.0 %
Extraction speed 6.3 X
Range quality 100.0 %
Test CRC 1457DA70
Copy CRC 1457DA70
Copy OK
No errors occurred
AccurateRip summary
Track 1 accurately ripped (confidence 3) [FEC47CA3] (AR v2)
Track 2 accurately ripped (confidence 3) [8DE66FB7] (AR v2)
Track 3 accurately ripped (confidence 3) [19506DA7] (AR v2)
Track 4 accurately ripped (confidence 3) [1ADF5017] (AR v2)
Track 5 accurately ripped (confidence 3) [5A17D411] (AR v2)
Track 6 accurately ripped (confidence 3) [1B41270A] (AR v2)
Track 7 accurately ripped (confidence 3) [4DDC6738] (AR v2)
Track 8 accurately ripped (confidence 3) [34D1D4A5] (AR v2)
Track 9 accurately ripped (confidence 3) [E451BC33] (AR v2)
All tracks accurately ripped
End of status report
---- CUETools DB Plugin V2.1.4
[CTDB TOCID: 90C6vvKefOzSFqnUXxBD4gk8yVE-] found
Submit result: already submitted
Track | CTDB Status
1 | (12/12) Accurately ripped
2 | (12/12) Accurately ripped
3 | (12/12) Accurately ripped
4 | (12/12) Accurately ripped
5 | (12/12) Accurately ripped
6 | (12/12) Accurately ripped
7 | (12/12) Accurately ripped
8 | (12/12) Accurately ripped
9 | (12/12) Accurately ripped
==== Log checksum 3C48500FFDF393392D1AD47612352C1D5419C0C83CD733B87D4CB80BD85BF684 ====

1999 - At the Heart of Winter (LE, Box)

Трэклист:
01. Withstand the Fall of Time (08:30)
02. Solarfall (06:03)
03. Tragedies Blows at Horizon (08:56)
04. Where Dark and Light Don't Differ (06:45)
05. At the Heart of Winter (08:00)
06. Years of Silent Sorrow (07:54)

EAC log:

Exact Audio Copy V1.0 beta 3 from 29. August 2011
EAC extraction logfile from 9. October 2012, 8:23
Immortal / At the Heart of Winter
Used drive : PIONEER DVD-RW DVR-112D Adapter: 0 ID: 0
Read mode : Secure
Utilize accurate stream : Yes
Defeat audio cache : Yes
Make use of C2 pointers : No
Read offset correction : 48
Overread into Lead-In and Lead-Out : No
Fill up missing offset samples with silence : Yes
Delete leading and trailing silent blocks : No
Null samples used in CRC calculations : Yes
Used interface : Native Win32 interface for Win NT & 2000
Used output format : User Defined Encoder
Selected bitrate : 128 kBit/s
Quality : High
Add ID3 tag : No
Command line compressor : C:\Program Files (x86)\Exact Audio Copy\FLAC\FLAC.EXE
Additional command line options : -8 -V -T "ARTIST=%artist%" -T "TITLE=%title%" -T "ALBUM=%albumtitle%" -T "DATE=%year%" -T "TRACKNUMBER=%tracknr%" -T "GENRE=%genre%" -T "COMMENT=EAC FLAC -8" %source%
TOC of the extracted CD
Track | Start | Length | Start sector | End sector
---------------------------------------------------------
1 | 0:00.32 | 8:29.48 | 32 | 38254
2 | 8:30.05 | 6:02.55 | 38255 | 65459
3 | 14:32.60 | 8:55.40 | 65460 | 105624
4 | 23:28.25 | 6:45.10 | 105625 | 136009
5 | 30:13.35 | 8:00.20 | 136010 | 172029
6 | 38:13.55 | 7:53.40 | 172030 | 207544
Range status and errors
Selected range
Filename H:\Immortal - At the Heart of Winter\Immortal - At the Heart of Winter.wav
Peak level 98.8 %
Extraction speed 4.0 X
Range quality 100.0 %
Test CRC B967B79C
Copy CRC B967B79C
Copy OK
No errors occurred
AccurateRip summary
Track 1 accurately ripped (confidence 7) [2D15A490] (AR v2)
Track 2 accurately ripped (confidence 7) [D8BC8CC9] (AR v2)
Track 3 accurately ripped (confidence 7) [19A9578F] (AR v2)
Track 4 accurately ripped (confidence 7) [131AF676] (AR v2)
Track 5 accurately ripped (confidence 7) [37C65199] (AR v2)
Track 6 accurately ripped (confidence 7) [6A06EA4B] (AR v2)
All tracks accurately ripped
End of status report
---- CUETools DB Plugin V2.1.4
[CTDB TOCID: ttXhtbdyWhg_8QJbNbFiC6_m16M-] found
Submit result: ttXhtbdyWhg_8QJbNbFiC6_m16M- has been confirmed
Track | CTDB Status
1 | (6/6) Accurately ripped
2 | (6/6) Accurately ripped
3 | (6/6) Accurately ripped
4 | (5/6) Accurately ripped, or (1/6) differs in 906 samples @06:09:02
5 | (5/6) Accurately ripped, or (1/6) differs in 3953 samples @05:57:00-05:57:02,06:02:49-06:02:51
6 | (6/6) Accurately ripped
==== Log checksum 510C07CE57127F90236178B5CEE0DCEA90D240DBAC0488CBD105C79DD26115FF ====

2000 - Damned in Black (LE, Box)

Трэклист:
01. Triumph (05:41)
02. Wrath from Above (05:46)
03. Against the Tide (In the Arctic World) (06:03)
04. My Dimension (04:32)
05. The Darkness that Embrace Me (04:38)
06. In our Mystic Visions Blest (03:12)
07. Damned in Black (06:51)

EAC log:

Exact Audio Copy V1.0 beta 3 from 29. August 2011
EAC extraction logfile from 9. October 2012, 6:50
Immortal / Damned in Black
Used drive : PIONEER DVD-RW DVR-112D Adapter: 0 ID: 0
Read mode : Secure
Utilize accurate stream : Yes
Defeat audio cache : Yes
Make use of C2 pointers : No
Read offset correction : 48
Overread into Lead-In and Lead-Out : No
Fill up missing offset samples with silence : Yes
Delete leading and trailing silent blocks : No
Null samples used in CRC calculations : Yes
Used interface : Native Win32 interface for Win NT & 2000
Used output format : User Defined Encoder
Selected bitrate : 128 kBit/s
Quality : High
Add ID3 tag : No
Command line compressor : C:\Program Files (x86)\Exact Audio Copy\FLAC\FLAC.EXE
Additional command line options : -8 -V -T "ARTIST=%artist%" -T "TITLE=%title%" -T "ALBUM=%albumtitle%" -T "DATE=%year%" -T "TRACKNUMBER=%tracknr%" -T "GENRE=%genre%" -T "COMMENT=EAC FLAC -8" %source%
TOC of the extracted CD
Track | Start | Length | Start sector | End sector
---------------------------------------------------------
1 | 0:00.32 | 5:40.73 | 32 | 25604
2 | 5:41.30 | 5:46.22 | 25605 | 51576
3 | 11:27.52 | 6:02.45 | 51577 | 78771
4 | 17:30.22 | 4:32.03 | 78772 | 99174
5 | 22:02.25 | 4:37.52 | 99175 | 120001
6 | 26:40.02 | 3:11.43 | 120002 | 134369
7 | 29:51.45 | 6:51.30 | 134370 | 165224
Range status and errors
Selected range
Filename H:\Immortal - Damned in Black\Immortal - Damned in Black.wav
Peak level 98.8 %
Extraction speed 6.4 X
Range quality 100.0 %
Test CRC E7998C69
Copy CRC E7998C69
Copy OK
No errors occurred
AccurateRip summary
Track 1 accurately ripped (confidence 3) [E5B28D5F] (AR v2)
Track 2 accurately ripped (confidence 3) [BAB542AB] (AR v2)
Track 3 accurately ripped (confidence 3) [9F6491E7] (AR v2)
Track 4 accurately ripped (confidence 3) [3E9392FF] (AR v2)
Track 5 accurately ripped (confidence 3) [9B34DCCB] (AR v2)
Track 6 accurately ripped (confidence 3) [03385450] (AR v2)
Track 7 accurately ripped (confidence 3) [63F9C0CF] (AR v2)
All tracks accurately ripped
End of status report
---- CUETools DB Plugin V2.1.4
[CTDB TOCID: 5cm9BWy0b5FSgnsiixLlkXvahqc-] found
Submit result: 5cm9BWy0b5FSgnsiixLlkXvahqc- has been confirmed
Track | CTDB Status
1 | (3/4) Accurately ripped, or (1/4) differs in 224 samples @05:14:09-05:14:10,05:15:03-05:15:04,05:15:13-05:15:14,05:15:42-05:15:43,05:15:52,05:15:62-05:15:63,05:16:27,05:31:15
2 | (4/4) Accurately ripped
3 | (3/4) Accurately ripped, or (1/4) differs in 402 samples @04:59:65-04:59:66,05:00:03,05:00:15-05:00:16,05:00:27-05:00:28,05:00:39-05:00:40,05:00:64-05:00:65,05:01:01-05:01:02,05:01:14,05:01:38-05:01:39
4 | (4/4) Accurately ripped
5 | (4/4) Accurately ripped
6 | (4/4) Accurately ripped
7 | (4/4) Accurately ripped
==== Log checksum 6DB15EA0C52FF81C5F85EC8C7249EC675EDBA1CC580C44A2F5AF76C71946295D ====

2002 - Sons Of Northern Darkness (LE, Digipak)

Трэклист:
01. One By One (05:01)
02. Sons Of Northern Darkness (04:47)
03. Tyrants (06:18)
04. Demonium (03:58)
05. Within The Dark Mind (07:31)
06. In My Kingdom Cold (07:17)
07. Antarctica (07:13)
08. Beyond The North Waves (08:07)

EAC log:

Exact Audio Copy V1.0 beta 3 from 29. August 2011
EAC extraction logfile from 9. October 2012, 9:07
Immortal / Sons Of Northern Darkness
Used drive : PIONEER DVD-RW DVR-112D Adapter: 0 ID: 0
Read mode : Secure
Utilize accurate stream : Yes
Defeat audio cache : Yes
Make use of C2 pointers : No
Read offset correction : 48
Overread into Lead-In and Lead-Out : No
Fill up missing offset samples with silence : Yes
Delete leading and trailing silent blocks : No
Null samples used in CRC calculations : Yes
Used interface : Native Win32 interface for Win NT & 2000
Used output format : User Defined Encoder
Selected bitrate : 128 kBit/s
Quality : High
Add ID3 tag : No
Command line compressor : C:\Program Files (x86)\Exact Audio Copy\FLAC\FLAC.EXE
Additional command line options : -8 -V -T "ARTIST=%artist%" -T "TITLE=%title%" -T "ALBUM=%albumtitle%" -T "DATE=%year%" -T "TRACKNUMBER=%tracknr%" -T "GENRE=%genre%" -T "COMMENT=EAC FLAC -8" %source%
TOC of the extracted CD
Track | Start | Length | Start sector | End sector
---------------------------------------------------------
1 | 0:00.00 | 5:00.42 | 0 | 22541
2 | 5:00.42 | 4:47.08 | 22542 | 44074
3 | 9:47.50 | 6:18.27 | 44075 | 72451
4 | 16:06.02 | 3:57.60 | 72452 | 90286
5 | 20:03.62 | 7:31.20 | 90287 | 124131
6 | 27:35.07 | 7:17.30 | 124132 | 156936
7 | 34:52.37 | 7:12.70 | 156937 | 189406
8 | 42:05.32 | 8:06.70 | 189407 | 225926
Range status and errors
Selected range
Filename H:\Immortal - Sons Of Northern Darkness\Immortal - Sons Of Northern Darkness.wav
Peak level 97.9 %
Extraction speed 7.1 X
Range quality 100.0 %
Test CRC 529DB2FE
Copy CRC 529DB2FE
Copy OK
No errors occurred
AccurateRip summary
Track 1 accurately ripped (confidence 3) [FC753025] (AR v2)
Track 2 accurately ripped (confidence 3) [48806D21] (AR v2)
Track 3 accurately ripped (confidence 3) [7FF14FD5] (AR v2)
Track 4 accurately ripped (confidence 3) [228D147C] (AR v2)
Track 5 accurately ripped (confidence 3) [C3D211A3] (AR v2)
Track 6 accurately ripped (confidence 3) [1358201F] (AR v2)
Track 7 accurately ripped (confidence 3) [D527BDEC] (AR v2)
Track 8 accurately ripped (confidence 3) [734E5B29] (AR v2)
All tracks accurately ripped
End of status report
---- CUETools DB Plugin V2.1.4
[CTDB TOCID: vunFctzgwPDtpVE2Uj6NB.EGRUw-] found
Submit result: already submitted
Track | CTDB Status
1 | (24/24) Accurately ripped
2 | (24/24) Accurately ripped
3 | (24/24) Accurately ripped
4 | (24/24) Accurately ripped
5 | (24/24) Accurately ripped
6 | (24/24) Accurately ripped
7 | (24/24) Accurately ripped
8 | (24/24) Accurately ripped
==== Log checksum DEB985682A7CA7F4EBB07F034EB754BCF81CD175889B0518B3CCBF9E4830167E ====

2009 - All Shall Fall (LE, Digipak)

Трэклист:
01. All Shall Fall (05:58)
02. The Rise of Darkness (05:48)
03. Hordes to War (04:33)
04. Norden on Fire (06:16)
05. Arctic Swarm (04:02)
06. Mount North (05:08)
07. Unearthly Kingdom (08:31)

EAC log:

Exact Audio Copy V1.0 beta 3 from 29. August 2011
EAC extraction logfile from 9. October 2012, 15:13
Immortal / All Shall Fall
Used drive : PIONEER DVD-RW DVR-112D Adapter: 0 ID: 0
Read mode : Secure
Utilize accurate stream : Yes
Defeat audio cache : Yes
Make use of C2 pointers : No
Read offset correction : 48
Overread into Lead-In and Lead-Out : No
Fill up missing offset samples with silence : Yes
Delete leading and trailing silent blocks : No
Null samples used in CRC calculations : Yes
Used interface : Native Win32 interface for Win NT & 2000
Used output format : User Defined Encoder
Selected bitrate : 128 kBit/s
Quality : High
Add ID3 tag : No
Command line compressor : C:\Program Files (x86)\Exact Audio Copy\FLAC\FLAC.EXE
Additional command line options : -8 -V -T "ARTIST=%artist%" -T "TITLE=%title%" -T "ALBUM=%albumtitle%" -T "DATE=%year%" -T "TRACKNUMBER=%tracknr%" -T "GENRE=%genre%" -T "COMMENT=EAC FLAC -8" %source%
TOC of the extracted CD
Track | Start | Length | Start sector | End sector
---------------------------------------------------------
1 | 0:00.00 | 5:58.01 | 0 | 26850
2 | 5:58.01 | 5:47.74 | 26851 | 52949
3 | 11:46.00 | 4:32.50 | 52950 | 73399
4 | 16:18.50 | 6:15.66 | 73400 | 101590
5 | 22:34.41 | 4:01.61 | 101591 | 119726
6 | 26:36.27 | 5:07.73 | 119727 | 142824
7 | 31:44.25 | 8:30.42 | 142825 | 181116
Range status and errors
Selected range
Filename H:\Immortal - All Shall Fall\Immortal - All Shall Fall.wav
Peak level 98.7 %
Extraction speed 6.6 X
Range quality 100.0 %
Test CRC DB34E0CF
Copy CRC DB34E0CF
Copy OK
No errors occurred
AccurateRip summary
Track 1 accurately ripped (confidence 6) [D1DAC447] (AR v2)
Track 2 accurately ripped (confidence 6) [658991C7] (AR v2)
Track 3 accurately ripped (confidence 6) [1FB95DF5] (AR v2)
Track 4 accurately ripped (confidence 6) [95FE8288] (AR v2)
Track 5 accurately ripped (confidence 6) [82B7E1C7] (AR v2)
Track 6 accurately ripped (confidence 6) [6B3BAE34] (AR v2)
Track 7 accurately ripped (confidence 6) [111FFC92] (AR v2)
All tracks accurately ripped
End of status report
---- CUETools DB Plugin V2.1.4
[CTDB TOCID: w36PXsXm4Cj7bnQmoYMbK7Luh8Y-] found
Submit result: already submitted
Track | CTDB Status
1 | (17/17) Accurately ripped
2 | (17/17) Accurately ripped
3 | (14/17) Accurately ripped
4 | (17/17) Accurately ripped
5 | (14/17) Accurately ripped
6 | (14/17) Accurately ripped
7 | (17/17) Accurately ripped
==== Log checksum 2802940BA8B7E62ED44A14DFFCBF02C5CD5591A0BF8317A213D619C3EEB13C4D ====
★ IMMORTAL OFFICIAL WEB SITE ★
★ НЕОФИЦИАЛЬНЫЙ САЙТ ГРУППЫ IMMORTAL ★
[Profile]  [PM] 
Display posts:    
Reply to topic

Current time is: 27-Sep 11:09

All times are UTC + 2



You cannot post new topics in this forum
You cannot reply to topics in this forum
You cannot edit your posts in this forum
You cannot delete your posts in this forum
You cannot vote in polls in this forum
You cannot attach files in this forum
You cannot download files in this forum