(Folk / Black / Viking Metal) Finntroll - Discography (5 CD-Album + 2 CD-EP) (1999-2010), FLAC (image + .cue), lossless

Reply to topic
 
Author
Message

Rogvald ®

Gender: Male

Longevity: 11 years

Posts: 836

Reputation: 1006 [+] [-]

Rogvald · Post 24-Nov-2013 23:41

[Quote] 

Finntroll Discography (5 CD-Album + 2 CD-EP)
Страна: Finland
Жанр: Folk/Black/Viking Metal
Годы: 1999-2007
Формат: FLAC (image + .cue)
Битрейт аудио: lossless
Продолжительность: 3:37:19

Midnattens Widunder (1999)

01. Intro
02. Svartberg
03. Rivfader
04. Vatteanda
05. Bastuvisan
06. Blodnatt
07. Midnattens Widunder
08. Segersang
09. Svampfest

EAC Log

Exact Audio Copy V0.99 prebeta 4 from 23. January 2008
Отчёт EAC об извлечении, выполненном 30. апреля 2008, 20:55
Finntroll / Midnattens Widunder
Дисковод: LITE-ON DVDRW SOHW-1693S Adapter: 0 ID: 1
Режим чтения : Достоверность
Использование точного потока : Да
Отключение кэша аудио : Да
Использование указателей C2 : Нет
Коррекция смещения при чтении : 12
Способность читать области Lead-in и Lead-out : Нет
Заполнение пропущенных сэмплов тишиной : Да
Удаление блоков с тишиной в начале и конце : Нет
При вычислениях CRC использовались нулевые сэмплы : Да
Интерфейс : Встроенный Win32-интерфейс для Win NT/2000
Выходной формат : Пользовательский кодировщик
Выбранный битрейт : 1024 kBit/s
Качество : Высокий
Добавление ID3-тэга : Нет
Утилита сжатия : C:\Program Files\Exact Audio Copy\FLAC\FLAC.EXE
Дополнительные параметры : -6 -V -T "ARTIST=%a" -T "TITLE=%t" -T "ALBUM=%g" -T "DATE=%y" -T "TRACKNUMBER=%n" -T "GENRE=%m" -T "COMMENT=%e" %s -o %d
TOC извлечённого CD
Трек | Старт | Длительность | Начальный сектор | Конечный сектор
---------------------------------------------------------------------
1 | 0:00.00 | 1:56.72 | 0 | 8771
2 | 1:56.72 | 4:05.14 | 8772 | 27160
3 | 6:02.11 | 4:06.61 | 27161 | 45671
4 | 10:08.72 | 4:35.47 | 45672 | 66343
5 | 14:44.44 | 1:18.43 | 66344 | 72236
6 | 16:03.12 | 5:09.63 | 72237 | 95474
7 | 21:13.00 | 4:37.61 | 95475 | 116310
8 | 25:50.61 | 1:58.55 | 116311 | 125215
9 | 27:49.41 | 2:03.06 | 125216 | 134446
Характеристики диапазона извлечения и сообщения об ошибках
Выбранный диапазон
Имя файла E:\Music\Sorted\Finntroll\Midnattens Widunder\Finntroll - Midnattens Widunder.wav
Пиковый уровень 98.8 %
Качество диапазона 100.0 %
CRC копии 140D6906
Копирование... OK
Ошибок не произошло
Конец отчёта

Jaktens Tid (2001)

01. Krig (2:09)
02. Fodosagan (5:02)
03. Slaget Vid Blodsalv (3:16)
04. Skogens Hamnd (4:05)
05. Jaktens Tid (3:33)
06. Bakom Varje Fura (2:14)
07. Kitteldags (2:04)
08. Krigsmjod (3:08)
09. Vargtimmen (3:28)
10. Kyrkovisan (1:22)
11. Den Hornkronte Konungen (3:43)
12. Aldhissla (6:27)
13. Tomhet Och Tystnad Harska (4:35)

EAC Log

Exact Audio Copy V0.99 prebeta 4 from 23. January 2008
Отчёт EAC об извлечении, выполненном 30. апреля 2008, 20:07
Finntroll / Jaktens Tid
Дисковод: LITE-ON DVDRW SOHW-1693S Adapter: 0 ID: 1
Режим чтения : Достоверность
Использование точного потока : Да
Отключение кэша аудио : Да
Использование указателей C2 : Нет
Коррекция смещения при чтении : 12
Способность читать области Lead-in и Lead-out : Нет
Заполнение пропущенных сэмплов тишиной : Да
Удаление блоков с тишиной в начале и конце : Нет
При вычислениях CRC использовались нулевые сэмплы : Да
Интерфейс : Встроенный Win32-интерфейс для Win NT/2000
Выходной формат : Пользовательский кодировщик
Выбранный битрейт : 1024 kBit/s
Качество : Высокий
Добавление ID3-тэга : Нет
Утилита сжатия : C:\Program Files\Exact Audio Copy\FLAC\FLAC.EXE
Дополнительные параметры : -6 -V -T "ARTIST=%a" -T "TITLE=%t" -T "ALBUM=%g" -T "DATE=%y" -T "TRACKNUMBER=%n" -T "GENRE=%m" -T "COMMENT=%e" %s -o %d
TOC извлечённого CD
Трек | Старт | Длительность | Начальный сектор | Конечный сектор
---------------------------------------------------------------------
1 | 0:00.00 | 2:09.37 | 0 | 9711
2 | 2:09.37 | 5:02.27 | 9712 | 32388
3 | 7:11.64 | 3:16.68 | 32389 | 47156
4 | 10:28.57 | 4:05.39 | 47157 | 65570
5 | 14:34.21 | 3:33.40 | 65571 | 81585
6 | 18:07.61 | 2:14.12 | 81586 | 91647
7 | 20:21.73 | 2:04.67 | 91648 | 101014
8 | 22:26.65 | 3:08.25 | 101015 | 115139
9 | 25:35.15 | 3:28.20 | 115140 | 130759
10 | 29:03.35 | 1:22.48 | 130760 | 136957
11 | 30:26.08 | 3:43.18 | 136958 | 153700
12 | 34:09.26 | 6:27.10 | 153701 | 182735
13 | 40:36.36 | 4:35.15 | 182736 | 203375
Характеристики диапазона извлечения и сообщения об ошибках
Выбранный диапазон
Имя файла E:\Music\Sorted\Finntroll\Jaktens Tid\Finntroll - Jaktens Tid.wav
Пиковый уровень 98.8 %
Качество диапазона 100.0 %
CRC копии F6F32617
Копирование... OK
Ошибок не произошло
Конец отчёта

Visor Om Slutet (2003) [EP]

This album is dedicated to our dear friend and bandmate Teema "Somnium" Raimoranta (R.I.P 1977 - 2003)...
01. Suohengen Sija
02. Asfagelns Dod
03. Forsvinn Du Som Lyser
04. Veripuu
05. Under Varje Rot Och Sten
06. Nar Allt Blir Is
07. Den Sista Runans Dans
08. Rov
09. Madon Laulu
10. Svart Djup
11. Avgrunden Oppnas

EAC Log

Exact Audio Copy V0.99 prebeta 4 from 23. January 2008
Отчёт EAC об извлечении, выполненном 30. апреля 2008, 21:38
Finntroll / Visor Om Slutet
Дисковод: LITE-ON DVDRW SOHW-1693S Adapter: 0 ID: 1
Режим чтения : Достоверность
Использование точного потока : Да
Отключение кэша аудио : Да
Использование указателей C2 : Нет
Коррекция смещения при чтении : 12
Способность читать области Lead-in и Lead-out : Нет
Заполнение пропущенных сэмплов тишиной : Да
Удаление блоков с тишиной в начале и конце : Нет
При вычислениях CRC использовались нулевые сэмплы : Да
Интерфейс : Встроенный Win32-интерфейс для Win NT/2000
Выходной формат : Пользовательский кодировщик
Выбранный битрейт : 1024 kBit/s
Качество : Высокий
Добавление ID3-тэга : Нет
Утилита сжатия : C:\Program Files\Exact Audio Copy\FLAC\FLAC.EXE
Дополнительные параметры : -6 -V -T "ARTIST=%a" -T "TITLE=%t" -T "ALBUM=%g" -T "DATE=%y" -T "TRACKNUMBER=%n" -T "GENRE=%m" -T "COMMENT=%e" %s -o %d
TOC извлечённого CD
Трек | Старт | Длительность | Начальный сектор | Конечный сектор
---------------------------------------------------------------------
1 | 0:00.00 | 2:58.70 | 0 | 13419
2 | 2:58.70 | 3:46.08 | 13420 | 30377
3 | 6:45.03 | 2:38.35 | 30378 | 42262
4 | 9:23.38 | 1:15.51 | 42263 | 47938
5 | 10:39.14 | 3:17.48 | 47939 | 62761
6 | 13:56.62 | 2:36.14 | 62762 | 74475
7 | 16:33.01 | 3:44.56 | 74476 | 91331
8 | 20:17.57 | 2:05.17 | 91332 | 100723
9 | 22:22.74 | 4:01.01 | 100724 | 118799
10 | 26:24.00 | 3:57.36 | 118800 | 136610
11 | 30:21.36 | 2:19.64 | 136611 | 147099
Характеристики диапазона извлечения и сообщения об ошибках
Выбранный диапазон
Имя файла E:\Music\Sorted\Finntroll\Visor Om Slutet\Finntroll - Visor Om Slutet.wav
Пиковый уровень 97.7 %
Качество диапазона 100.0 %
CRC копии 1F24BAC0
Копирование... OK
Ошибок не произошло
Конец отчёта

Trollhammaren (2004) [EP]

01. Trollhammaren
02. Hemkomst
03. Skog
04. Forsvinn Du Som Lyser
05. Hel Vete

EAC Log

Exact Audio Copy V0.99 prebeta 4 from 23. January 2008
Отчёт EAC об извлечении, выполненном 30. апреля 2008, 21:50
Finntroll / Trollhammaren
Дисковод: LITE-ON DVDRW SOHW-1693S Adapter: 0 ID: 1
Режим чтения : Достоверность
Использование точного потока : Да
Отключение кэша аудио : Да
Использование указателей C2 : Нет
Коррекция смещения при чтении : 12
Способность читать области Lead-in и Lead-out : Нет
Заполнение пропущенных сэмплов тишиной : Да
Удаление блоков с тишиной в начале и конце : Нет
При вычислениях CRC использовались нулевые сэмплы : Да
Интерфейс : Встроенный Win32-интерфейс для Win NT/2000
Выходной формат : Пользовательский кодировщик
Выбранный битрейт : 1024 kBit/s
Качество : Высокий
Добавление ID3-тэга : Нет
Утилита сжатия : C:\Program Files\Exact Audio Copy\FLAC\FLAC.EXE
Дополнительные параметры : -6 -V -T "ARTIST=%a" -T "TITLE=%t" -T "ALBUM=%g" -T "DATE=%y" -T "TRACKNUMBER=%n" -T "GENRE=%m" -T "COMMENT=%e" %s -o %d
TOC извлечённого CD
Трек | Старт | Длительность | Начальный сектор | Конечный сектор
---------------------------------------------------------------------
1 | 0:00.00 | 3:28.51 | 0 | 15650
2 | 3:28.51 | 3:46.01 | 15651 | 32601
3 | 7:14.52 | 3:23.39 | 32602 | 47865
4 | 10:38.16 | 2:17.06 | 47866 | 58146
5 | 12:55.22 | 4:15.03 | 58147 | 77274
Характеристики диапазона извлечения и сообщения об ошибках
Выбранный диапазон
Имя файла E:\Music\Sorted\Finntroll\Trollhammaren\Finntroll - Trollhammaren.wav
Пиковый уровень 97.7 %
Качество диапазона 100.0 %
CRC копии 3830D4F5
Копирование... OK
Ошибок не произошло
Конец отчёта

Nattfodd (2004)

01. Vindfärd / Människopesten
02. Eliytres
03. Fiskarens Fiende
04. Trollhammaren
05. Nattfödd
06. Ursvamp
07. Marknadsvisan
08. Det Iskalla Trollblod
09. Grottans Barn
10. Rök

EAC Log

Exact Audio Copy V0.99 prebeta 4 from 23. January 2008
Отчёт EAC об извлечении, выполненном 30. апреля 2008, 21:19
Finntroll / Nattfodd
Дисковод: LITE-ON DVDRW SOHW-1693S Adapter: 0 ID: 1
Режим чтения : Достоверность
Использование точного потока : Да
Отключение кэша аудио : Да
Использование указателей C2 : Нет
Коррекция смещения при чтении : 12
Способность читать области Lead-in и Lead-out : Нет
Заполнение пропущенных сэмплов тишиной : Да
Удаление блоков с тишиной в начале и конце : Нет
При вычислениях CRC использовались нулевые сэмплы : Да
Интерфейс : Встроенный Win32-интерфейс для Win NT/2000
Выходной формат : Пользовательский кодировщик
Выбранный битрейт : 1024 kBit/s
Качество : Высокий
Добавление ID3-тэга : Нет
Утилита сжатия : C:\Program Files\Exact Audio Copy\FLAC\FLAC.EXE
Дополнительные параметры : -6 -V -T "ARTIST=%a" -T "TITLE=%t" -T "ALBUM=%g" -T "DATE=%y" -T "TRACKNUMBER=%n" -T "GENRE=%m" -T "COMMENT=%e" %s -o %d
TOC извлечённого CD
Трек | Старт | Длительность | Начальный сектор | Конечный сектор
---------------------------------------------------------------------
1 | 0:00.00 | 5:36.44 | 0 | 25243
2 | 5:36.44 | 3:46.19 | 25244 | 42212
3 | 9:22.63 | 3:47.03 | 42213 | 59240
4 | 13:09.66 | 3:32.18 | 59241 | 75158
5 | 16:42.09 | 4:51.38 | 75159 | 97021
6 | 21:33.47 | 2:02.64 | 97022 | 106235
7 | 23:36.36 | 1:59.57 | 106236 | 115217
8 | 25:36.18 | 3:54.47 | 115218 | 132814
9 | 29:30.65 | 4:36.35 | 132815 | 153549
10 | 34:07.25 | 2:23.01 | 153550 | 164275
Характеристики диапазона извлечения и сообщения об ошибках
Выбранный диапазон
Имя файла E:\Music\Sorted\Finntroll\Nattfodd\Finntroll - Nattfodd.wav
Пиковый уровень 97.7 %
Качество диапазона 100.0 %
CRC копии DAEB0B57
Копирование... OK
Ошибок не произошло
Конец отчёта

Ur Jordens Djup (2007)

01. Gryning
02. Sang
03. Korpens Saga
04. Nedgang
05. Ur Djupet
06. Slagbroder
07. En Maktig Har
08. Ormhaxan
09. Maktens Spira
10. Under Tva Runor
11. Kvallning

EAC Log

Exact Audio Copy V0.99 prebeta 4 from 23. January 2008
Отчёт EAC об извлечении, выполненном 30. апреля 2008, 20:39
Finntroll / Ur Jordens Djup
Дисковод: LITE-ON DVDRW SOHW-1693S Adapter: 0 ID: 1
Режим чтения : Достоверность
Использование точного потока : Да
Отключение кэша аудио : Да
Использование указателей C2 : Нет
Коррекция смещения при чтении : 12
Способность читать области Lead-in и Lead-out : Нет
Заполнение пропущенных сэмплов тишиной : Да
Удаление блоков с тишиной в начале и конце : Нет
При вычислениях CRC использовались нулевые сэмплы : Да
Интерфейс : Встроенный Win32-интерфейс для Win NT/2000
Выходной формат : Пользовательский кодировщик
Выбранный битрейт : 1024 kBit/s
Качество : Высокий
Добавление ID3-тэга : Нет
Утилита сжатия : C:\Program Files\Exact Audio Copy\FLAC\FLAC.EXE
Дополнительные параметры : -6 -V -T "ARTIST=%a" -T "TITLE=%t" -T "ALBUM=%g" -T "DATE=%y" -T "TRACKNUMBER=%n" -T "GENRE=%m" -T "COMMENT=%e" %s -o %d
TOC извлечённого CD
Трек | Старт | Длительность | Начальный сектор | Конечный сектор
---------------------------------------------------------------------
1 | 0:00.00 | 3:31.06 | 0 | 15830
2 | 3:31.06 | 4:40.29 | 15831 | 36859
3 | 8:11.35 | 3:26.12 | 36860 | 52321
4 | 11:37.47 | 3:43.53 | 52322 | 69099
5 | 15:21.25 | 4:58.60 | 69100 | 91509
6 | 20:20.10 | 4:31.10 | 91510 | 111844
7 | 24:51.20 | 4:18.67 | 111845 | 131261
8 | 29:10.12 | 4:38.72 | 131262 | 152183
9 | 33:49.09 | 3:28.16 | 152184 | 167799
10 | 37:17.25 | 5:36.28 | 167800 | 193027
11 | 42:53.53 | 13:01.48 | 193028 | 251650
Характеристики диапазона извлечения и сообщения об ошибках
Выбранный диапазон
Имя файла E:\Music\Sorted\Finntroll\Ur Jordens Djup\Finntroll - Ur Jordens Djup.wav
Пиковый уровень 97.7 %
Качество диапазона 100.0 %
CRC копии F3BF7309
Копирование... OK
Ошибок не произошло
Конец отчёта

Nifelvind (2010)

01. Blodmarsch (Intro) (2:11)
02. Solsagan (4:32)
03. Den Frusna Munnen (4:05)
04. Ett Norrskensdåd (3:34)
05. I Trädens Sång (3:45)
06. Tiden Utan Tid (4:58)
07. Galgasång (3:45)
08. Mot Skuggornas Värld (4:43)
09. Under Bergets Rot (3:28)
10. Fornfamnad (3:43)
11. Dråp (7:01)
12. Under Dvärgens Fot (Boxset-Version Bonus Track) (3:32)

EAC Log

Exact Audio Copy V0.99 prebeta 5 from 4. May 2009
Отчёт EAC об извлечении, выполненном 19. февраля 2010, 11:37
Finntroll / Nifelvind
Дисковод: _NEC DVD_RW ND-3500AG Adapter: 3 ID: 0
Режим чтения : Достоверность
Использование точного потока : Да
Отключение кэша аудио : Да
Использование указателей C2 : Нет
Коррекция смещения при чтении : 48
Способность читать области Lead-in и Lead-out : Нет
Заполнение пропущенных сэмплов тишиной : Да
Удаление блоков с тишиной в начале и конце : Нет
При вычислениях CRC использовались нулевые сэмплы : Да
Интерфейс : Установленный внешний ASPI-интерфейс
Выходной формат : Внутренние WAV-операции
Формат сэмплов : 44.100 Гц; 16 бит; стерео
TOC извлечённого CD
Трек | Старт | Длительность | Начальный сектор | Конечный сектор
---------------------------------------------------------------------
1 | 0:00.00 | 2:11.37 | 0 | 9861
2 | 2:11.37 | 4:31.46 | 9862 | 30232
3 | 6:43.08 | 4:04.70 | 30233 | 48602
4 | 10:48.03 | 3:34.32 | 48603 | 64684
5 | 14:22.35 | 3:45.29 | 64685 | 81588
6 | 18:07.64 | 4:58.22 | 81589 | 103960
7 | 23:06.11 | 3:44.70 | 103961 | 120830
8 | 26:51.06 | 4:43.33 | 120831 | 142088
9 | 31:34.39 | 3:27.52 | 142089 | 157665
10 | 35:02.16 | 3:42.45 | 157666 | 174360
11 | 38:44.61 | 7:00.39 | 174361 | 205899
12 | 45:45.25 | 3:32.18 | 205900 | 221817
Характеристики диапазона извлечения и сообщения об ошибках
Выбранный диапазон
Имя файла D:\Finntroll - Nifelvind.wav
Пиковый уровень 100.0 %
Качество диапазона 100.0 %
CRC теста A2355E80
CRC копии A2355E80
Копирование... OK
Ошибок не произошло
AccurateRip: сводка
Трек 1 нет в базе данных
Трек 2 нет в базе данных
Трек 3 нет в базе данных
Трек 4 нет в базе данных
Трек 5 нет в базе данных
Трек 6 нет в базе данных
Трек 7 нет в базе данных
Трек 8 нет в базе данных
Трек 9 нет в базе данных
Трек 10 нет в базе данных
Трек 11 нет в базе данных
Трек 12 нет в базе данных
Ни одного трека нет в базе AccurateRip
Конец отчёта
-
[Profile]  [PM] 
Display posts:    
Reply to topic

Current time is: 24-Sep 04:45

All times are UTC + 2



You cannot post new topics in this forum
You cannot reply to topics in this forum
You cannot edit your posts in this forum
You cannot delete your posts in this forum
You cannot vote in polls in this forum
You cannot attach files in this forum
You cannot download files in this forum