Цирк: иллюзия любви (Центр защиты прав животных "ВИТА") [2012, Документальный, DVD5]

Reply to topic
 
Author
Message

Atila ®

Gender: Unknown

Longevity: 7 years 4 months

Posts: 2497

Reputation: 0 [+] [-]

Atila · Post 27-May-2014 01:06

[Quote] 

Цирк: иллюзия любви
Год выпуска: 2012
Страна: Россия
Жанр: Документальный
Продолжительность: 00:28:18
Перевод: Не требуется
Русские субтитры: Нет
Режиссер: Центр защиты прав животных "ВИТА"
Описание:
Фильм рассказывает об истории возникновении цирков с животными, о судьбе животных в неволе, о методах дрессуры, о развитии мирового движения против использования животных в цирках, о современных нежестоких развлечениях, об этичных цирках и т.д.
В фильме участвуют Лайма Вайкуле, Ольга Шелест.
Текст читает заслуженный артист России Сергей Чонишвили.
Доп. информация: Релиз от
Центр защиты прав животных "ВИТА" выражает благодарность компании "LUSH" за помощь в создании фильма.
Фильм удостоен награды V Международного кинофестиваля "Ступени" (2012) как Лучший документальный фильм по правам животных в номинации "Увидеть эту неудобную правду".
Обложка DVD | Наклейка на диск
Меню: Есть, статичное
Главы (разбивка по трекам): Есть
Качество: DVD5
Формат: DVD Video
Видео: PAL 4:3 (720x576) VBR, 7754 kbps
Аудио: Russian (Dolby AC3, 2 ch), 192 kbps

DVDInfo:

Title: Cirk._Illjuzija_ljubviSize: 1.59 Gb ( 1 671 366,00 KBytes ) - DVD-5Enabled regions: 1, 2, 3, 4, 5, 6, 7, 8
VTS_01 : Play Length: 00:28:18 Video: PAL 4:3 (720x576) VBR Audio: English (Dolby AC3, 2 ch)

MediaInfo:

GeneralComplete name                            : D:\My Archive\Video\Documentary\Cirk._Illjuzija_ljubvi\VIDEO_TS\VIDEO_TS.BUPFormat                                   : DVD VideoFormat profile                           : MenuFile size                                : 12.0 KiBOverall bit rate mode                    : Variable
VideoID : 224 (0xE0)Format : MPEG VideoFormat version : Version 2Bit rate mode : VariableWidth : 720 pixelsHeight : 576 pixelsDisplay aspect ratio : 4:3Frame rate : 25.000 fpsStandard : PALCompression mode : Lossy
TextFormat : RLEFormat/Info : Run-length encodingBit depth : 2 bits
GeneralComplete name : D:\My Archive\Video\Documentary\Cirk._Illjuzija_ljubvi\VIDEO_TS\VIDEO_TS.IFOFormat : DVD VideoFormat profile : MenuFile size : 12.0 KiBOverall bit rate mode : Variable
VideoID : 224 (0xE0)Format : MPEG VideoFormat version : Version 2Bit rate mode : VariableWidth : 720 pixelsHeight : 576 pixelsDisplay aspect ratio : 4:3Frame rate : 25.000 fpsStandard : PALCompression mode : Lossy
TextFormat : RLEFormat/Info : Run-length encodingBit depth : 2 bits
GeneralComplete name : D:\My Archive\Video\Documentary\Cirk._Illjuzija_ljubvi\VIDEO_TS\VIDEO_TS.VOBFormat : MPEG-PSFile size : 10.0 KiBDuration : 40msOverall bit rate : 2 048 Kbps
VideoID : 224 (0xE0)Format : MPEG VideoFormat version : Version 2Format profile : Main@MainFormat settings, BVOP : NoFormat settings, Matrix : CustomDuration : 40msMaximum bit rate : 9 000 KbpsWidth : 720 pixelsHeight : 576 pixelsDisplay aspect ratio : 4:3Frame rate : 25.000 fpsStandard : PALColor space : YUVChroma subsampling : 4:2:0Bit depth : 8 bitsScan type : ProgressiveScan order : Top Field FirstCompression mode : LossyTime code of first frame : 00:00:00:00Time code source : Group of pictures headerColor primaries : BT.601 NTSCTransfer characteristics : BT.601Matrix coefficients : BT.601
Menu
GeneralComplete name : D:\My Archive\Video\Documentary\Cirk._Illjuzija_ljubvi\VIDEO_TS\VTS_01_0.BUPFormat : DVD VideoFormat profile : ProgramFile size : 30.0 KiBDuration : 28mn 18sOverall bit rate mode : VariableOverall bit rate : 145 bps
VideoID : 224 (0xE0)Format : MPEG VideoFormat version : Version 2Duration : 28mn 18sBit rate mode : VariableWidth : 720 pixelsHeight : 576 pixelsDisplay aspect ratio : 4:3Frame rate : 25.000 fpsStandard : PALCompression mode : Lossy
AudioID : 128 (0x80)Format : AC-3Format/Info : Audio Coding 3Duration : 28mn 18sChannel(s) : 2 channelsSampling rate : 48.0 KHzCompression mode : LossyLanguage : English
MenuDuration : 28mn 18s00:00:00.000 : Chapter 100:00:57.720 : Chapter 200:02:24.960 : Chapter 300:03:39.480 : Chapter 400:10:06.400 : Chapter 500:16:41.640 : Chapter 600:18:32.040 : Chapter 700:19:41.840 : Chapter 800:23:37.880 : Chapter 900:26:13.160 : Chapter 1000:28:17.960 : Chapter 11List (Audio) : 0
GeneralComplete name : D:\My Archive\Video\Documentary\Cirk._Illjuzija_ljubvi\VIDEO_TS\VTS_01_0.IFOFormat : DVD VideoFormat profile : ProgramFile size : 30.0 KiBDuration : 28mn 18sOverall bit rate mode : VariableOverall bit rate : 145 bps
VideoID : 224 (0xE0)Format : MPEG VideoFormat version : Version 2Duration : 28mn 18sBit rate mode : VariableWidth : 720 pixelsHeight : 576 pixelsDisplay aspect ratio : 4:3Frame rate : 25.000 fpsStandard : PALCompression mode : Lossy
AudioID : 128 (0x80)Format : AC-3Format/Info : Audio Coding 3Duration : 28mn 18sChannel(s) : 2 channelsSampling rate : 48.0 KHzCompression mode : LossyLanguage : English
MenuDuration : 28mn 18s00:00:00.000 : Chapter 100:00:57.720 : Chapter 200:02:24.960 : Chapter 300:03:39.480 : Chapter 400:10:06.400 : Chapter 500:16:41.640 : Chapter 600:18:32.040 : Chapter 700:19:41.840 : Chapter 800:23:37.880 : Chapter 900:26:13.160 : Chapter 1000:28:17.960 : Chapter 11List (Audio) : 0
GeneralComplete name : D:\My Archive\Video\Documentary\Cirk._Illjuzija_ljubvi\VIDEO_TS\VTS_01_0.VOBFormat : MPEG-PSFile size : 176 KiBDuration : 149msOverall bit rate : 9 676 Kbps
VideoID : 224 (0xE0)Format : MPEG VideoFormat version : Version 2Format profile : Main@MainFormat settings, BVOP : NoFormat settings, Matrix : CustomDuration : 149msMaximum bit rate : 9 000 KbpsWidth : 720 pixelsHeight : 576 pixelsDisplay aspect ratio : 4:3Frame rate : 25.000 fpsStandard : PALColor space : YUVChroma subsampling : 4:2:0Bit depth : 8 bitsScan type : ProgressiveScan order : Top Field FirstCompression mode : LossyColor primaries : BT.601 NTSCTransfer characteristics : BT.601Matrix coefficients : BT.601
TextID : 189 (0xBD)-32 (0x20)Format : RLEFormat/Info : Run-length encodingMuxing mode : DVD-VideoDelay relative to video : 109ms
Menu
GeneralComplete name : D:\My Archive\Video\Documentary\Cirk._Illjuzija_ljubvi\VIDEO_TS\VTS_01_1.VOBFormat : MPEG-PSFile size : 1 024 MiBDuration : 17mn 45sOverall bit rate : 8 062 Kbps
VideoID : 224 (0xE0)Format : MPEG VideoFormat version : Version 2Format profile : Main@MainFormat settings, BVOP : YesFormat settings, Matrix : DefaultFormat settings, GOP : M=3, N=12Duration : 17mn 45sBit rate : 7 754 KbpsWidth : 720 pixelsHeight : 576 pixelsDisplay aspect ratio : 4:3Frame rate : 25.000 fpsStandard : PALColor space : YUVChroma subsampling : 4:2:0Bit depth : 8 bitsScan type : InterlacedScan order : Bottom Field FirstCompression mode : LossyBits/(Pixel*Frame) : 0.748Time code of first frame : 00:00:00:00Time code source : Group of pictures headerStream size : 979 MiB (96%)
AudioID : 189 (0xBD)-128 (0x80)Format : AC-3Format/Info : Audio Coding 3Mode extension : CM (complete main)Format settings, Endianness : BigMuxing mode : DVD-VideoDuration : 17mn 45sBit rate mode : ConstantBit rate : 192 KbpsChannel(s) : 2 channelsChannel positions : Front: L RSampling rate : 48.0 KHzBit depth : 16 bitsCompression mode : LossyDelay relative to video : -80msStream size : 24.4 MiB (2%)
Menu
GeneralComplete name : D:\My Archive\Video\Documentary\Cirk._Illjuzija_ljubvi\VIDEO_TS\VTS_01_2.VOBFormat : MPEG-PSFile size : 608 MiBDuration : 10mn 32sOverall bit rate : 8 062 Kbps
VideoID : 224 (0xE0)Format : MPEG VideoFormat version : Version 2Format profile : Main@MainFormat settings, BVOP : YesFormat settings, Matrix : DefaultFormat settings, GOP : M=3, N=12Duration : 10mn 32sBit rate : 7 754 KbpsWidth : 720 pixelsHeight : 576 pixelsDisplay aspect ratio : 4:3Frame rate : 25.000 fpsStandard : PALColor space : YUVChroma subsampling : 4:2:0Bit depth : 8 bitsScan type : InterlacedScan order : Bottom Field FirstCompression mode : LossyBits/(Pixel*Frame) : 0.748Time code of first frame : 00:17:45:22Time code source : Group of pictures headerStream size : 585 MiB (96%)
AudioID : 189 (0xBD)-128 (0x80)Format : AC-3Format/Info : Audio Coding 3Mode extension : CM (complete main)Format settings, Endianness : BigMuxing mode : DVD-VideoDuration : 10mn 32sBit rate mode : ConstantBit rate : 192 KbpsChannel(s) : 2 channelsChannel positions : Front: L RSampling rate : 48.0 KHzBit depth : 16 bitsCompression mode : LossyDelay relative to video : -584msStream size : 14.5 MiB (2%)
Menu

Скриншоты меню:

Скриншоты:

Скриншоты (анаморфные):

[Profile]  [PM] 
Display posts:    
Reply to topic

Current time is: 17-Oct 19:54

All times are UTC + 2



You cannot post new topics in this forum
You cannot reply to topics in this forum
You cannot edit your posts in this forum
You cannot delete your posts in this forum
You cannot vote in polls in this forum
You cannot attach files in this forum
You cannot download files in this forum