Прелюдия Великой войны (Анна Москвина) [2013 г., Исторический, DVD5]

Reply to topic
 
Author
Message

Atila ®

Gender: Unknown

Longevity: 7 years 3 months

Posts: 2491

Reputation: 0 [+] [-]

Atila · Post 04-Jun-2014 03:38

[Quote] 

Прелюдия Великой войны
Год выпуска: 2013
Страна: Россия
Жанр: Исторический
Продолжительность: 00:50:54
Перевод: Не требуется
Русские субтитры: нет
Режиссер: А. Москвина
Описание: Вторая Мировая война, поднявшая на небывалую высоту американский доллар, была четко спланированным англо-американскими властями после неудачи Троцкого актом уничтожения русского народа как такового, пока не произошел великий перелом. В фильме подробно рассказаны предпосылки войны 20-х - 30-х годов и встречи советско-германских послов накануне 22 июня 1941 года.
Доп. информация: Обложки нет.
Бонусы: Отсутствуют.
Меню: Нет.
Сэмпл: http://www.sendspace.com/file/wsvvfn
Главы (разбивка по трекам): нет
Качество: DVD5
Формат: DVD Video
Видео кодек: MPEG2
Аудио кодек: MP2
Видео: 4216 Кбит/сек, 720*576 (4:3), в 25,000 кадров/сек, MPEG2
Аудио: Русский, 224 Кбит/сек, 48,0 КГц, 2 канала, MPEG Audio

DVDInfo

Title: Data2Size: 1.60 Gb ( 1 682 462 KBytes ) - DVD-5Enabled regions: 1, 2, 3, 4, 5, 6, 7, 8
VTS_01 : Play Length: 00:50:54 Video: PAL 4:3 (720x576) VBR Audio: Russian (MPEG1, 2 ch)
Menu Video: PAL 4:3 (720x576) VBR Auto Pan&Scan, Auto LetterboxedMenu Language Unit : Root Menu

MediaInfo

ОбщееПолное имя                               : F:\MONAR.RU\Видео\История России и мира\Прелюдия Великой войны\VIDEO_TS\VIDEO_TS.BUPФормат                                   : DVD VideoПрофиль формата                          : MenuРазмер файла                             : 8,00 КбайтРежим общего битрейта                    : Переменный
ВидеоИдентификатор : 224 (0xE0)Формат : MPEG VideoВерсия формата : Version 1Вид битрейта : ПеременныйШирина : 720 пикселейВысота : 576 пикселейСоотношение сторон : 4:3Частота кадров : 25,000 кадров/секСтандарт вещания : PALМетод сжатия : С потерями
ОбщееПолное имя : F:\MONAR.RU\Видео\История России и мира\Прелюдия Великой войны\VIDEO_TS\VIDEO_TS.IFOФормат : DVD VideoПрофиль формата : MenuРазмер файла : 8,00 КбайтРежим общего битрейта : Переменный
ВидеоИдентификатор : 224 (0xE0)Формат : MPEG VideoВерсия формата : Version 1Вид битрейта : ПеременныйШирина : 720 пикселейВысота : 576 пикселейСоотношение сторон : 4:3Частота кадров : 25,000 кадров/секСтандарт вещания : PALМетод сжатия : С потерями
ОбщееПолное имя : F:\MONAR.RU\Видео\История России и мира\Прелюдия Великой войны\VIDEO_TS\VTS_01_0.BUPФормат : DVD VideoПрофиль формата : ProgramРазмер файла : 42,0 КбайтПродолжительность : 50 м.Режим общего битрейта : ПеременныйОбщий поток : 113 бит/сек
ВидеоИдентификатор : 224 (0xE0)Формат : MPEG VideoВерсия формата : Version 2Продолжительность : 50 м.Вид битрейта : ПеременныйШирина : 720 пикселейВысота : 576 пикселейСоотношение сторон : 4:3Частота кадров : 25,000 кадров/секСтандарт вещания : PALМетод сжатия : С потерями
АудиоИдентификатор : 0 (0x0)Формат : MPEG AudioПрофиль формата : Version 1Продолжительность : 50 м.Каналы : 2 каналаЧастота : 48,0 КГцМетод сжатия : С потерямиЯзык : Russian
МенюПродолжительность : 50 м.00:00:00.000 : Chapter 1List (Audio) : 0
ОбщееПолное имя : F:\MONAR.RU\Видео\История России и мира\Прелюдия Великой войны\VIDEO_TS\VTS_01_0.IFOФормат : DVD VideoПрофиль формата : ProgramРазмер файла : 42,0 КбайтПродолжительность : 50 м.Режим общего битрейта : ПеременныйОбщий поток : 113 бит/сек
ВидеоИдентификатор : 224 (0xE0)Формат : MPEG VideoВерсия формата : Version 2Продолжительность : 50 м.Вид битрейта : ПеременныйШирина : 720 пикселейВысота : 576 пикселейСоотношение сторон : 4:3Частота кадров : 25,000 кадров/секСтандарт вещания : PALМетод сжатия : С потерями
АудиоИдентификатор : 0 (0x0)Формат : MPEG AudioПрофиль формата : Version 1Продолжительность : 50 м.Каналы : 2 каналаЧастота : 48,0 КГцМетод сжатия : С потерямиЯзык : Russian
МенюПродолжительность : 50 м.00:00:00.000 : Chapter 1List (Audio) : 0
ОбщееПолное имя : F:\MONAR.RU\Видео\История России и мира\Прелюдия Великой войны\VIDEO_TS\VTS_01_1.VOBФормат : MPEG-PSРазмер файла : 1024 МбайтПродолжительность : 31 м.Режим общего битрейта : ПеременныйОбщий поток : 4530 Кбит/сек
ВидеоИдентификатор : 224 (0xE0)Формат : MPEG VideoВерсия формата : Version 2Профиль формата : Main@MainПараметр BVOP формата : ДаПараметр матрицы формата : ВыборочнаяПараметр GOP формата : M=3, N=12Продолжительность : 31 м.Вид битрейта : ПеременныйБитрейт : 4216 Кбит/секМаксимальный битрейт : 6310 Кбит/секШирина : 720 пикселейВысота : 576 пикселейСоотношение сторон : 4:3Частота кадров : 25,000 кадров/секСтандарт вещания : PALЦветовое пространство : YUVСубдискретизация насыщенности : 4:2:0Битовая глубина : 8 битТип развёртки : ЧересстрочнаяПорядок развёртки : Верхнее поле первоеМетод сжатия : С потерямиБит/(Пиксели*Кадры) : 0.407Временной код первого кадра : 00:00:00:00Оригинал временного кода : Group of pictures headerРазмер потока : 953 Мбайт (93%)Основные цвета : BT.601 PALХарактеристики трансфера : BT.470 System B, BT.470 System GКоэффициенты матрицы : BT.601
АудиоИдентификатор : 192 (0xC0)Формат : MPEG AudioВерсия формата : Version 1Профиль формата : Layer 2Продолжительность : 31 м.Вид битрейта : ПостоянныйБитрейт : 224 Кбит/секКаналы : 2 каналаЧастота : 48,0 КГцМетод сжатия : С потерямиРазмер потока : 50,6 Мбайт (5%)
Меню
ОбщееПолное имя : F:\MONAR.RU\Видео\История России и мира\Прелюдия Великой войны\VIDEO_TS\VTS_01_2.VOBФормат : MPEG-PSРазмер файла : 619 МбайтПродолжительность : 19 м.Режим общего битрейта : ПеременныйОбщий поток : 4484 Кбит/сек
ВидеоИдентификатор : 224 (0xE0)Формат : MPEG VideoВерсия формата : Version 2Профиль формата : Main@MainПараметр BVOP формата : ДаПараметр матрицы формата : ВыборочнаяПараметр GOP формата : VariableПродолжительность : 19 м.Вид битрейта : ПеременныйБитрейт : 4171 Кбит/секМаксимальный битрейт : 6310 Кбит/секШирина : 720 пикселейВысота : 576 пикселейСоотношение сторон : 4:3Частота кадров : 25,000 кадров/секСтандарт вещания : PALЦветовое пространство : YUVСубдискретизация насыщенности : 4:2:0Битовая глубина : 8 битТип развёртки : ЧересстрочнаяПорядок развёртки : Верхнее поле первоеМетод сжатия : С потерямиБит/(Пиксели*Кадры) : 0.402Размер потока : 576 Мбайт (93%)Основные цвета : BT.601 PALХарактеристики трансфера : BT.470 System B, BT.470 System GКоэффициенты матрицы : BT.601
АудиоИдентификатор : 192 (0xC0)Формат : MPEG AudioВерсия формата : Version 1Профиль формата : Layer 2Продолжительность : 19 м.Вид битрейта : ПостоянныйБитрейт : 224 Кбит/секКаналы : 2 каналаЧастота : 48,0 КГцМетод сжатия : С потерямиЗадержка видео : -608 мс.Размер потока : 30,9 Мбайт (5%)
Меню

Диск

Скриншоты

Анаморфированные скриншоты

[Profile]  [PM] 
Display posts:    
Reply to topic

Current time is: 17-Sep 23:01

All times are UTC + 2



You cannot post new topics in this forum
You cannot reply to topics in this forum
You cannot edit your posts in this forum
You cannot delete your posts in this forum
You cannot vote in polls in this forum
You cannot attach files in this forum
You cannot download files in this forum