Самсара / Samsara (Рон Фрике / Ron Fricke) [2011, документальный, BD>DVD5 (Custom)] Original (Eng)

Reply to topic
 
Author
Message

Atila ®

Gender: Unknown

Longevity: 7 years 4 months

Posts: 2497

Reputation: 0 [+] [-]

Atila · Post 04-Jun-2014 03:38

[Quote] 

Самсара
Samsara
--Страна: США
Год выпуска: 2011
Жанр: документальный
Продолжительность: 01:42:12--Перевод: Не требуется
Cубтитры: Нет--Режиссер:
Рон Фрике / Ron Fricke--Описание:
Фильм, снятый полностью на 70-миллиметровую пленку, представляет собой полуторачасовое путешествие по самым удивительным местам планеты (всего в фильме покажут 25 стран на 5 континентах).-- --Доп. информация: Исходник BDRemux. Спасибо AlexD555 за инструкцию! Так же спасибо товарищам samsonq и ZVNV.--Меню: английское, частично анимированое/озвученое
Сэмпл: http://multi-up.com/820174-Тип релиза: DVD5
Контейнер: DVD-Video
Видео: NTSC 16:9 (720x480) VBR, Auto Letterboxed
Аудио: English (Dolby AC3, 5.1 ch, 448 кб/с) - оригиналРелиз от:

MediaInfo

General
Complete name : D:\Фильмы\Samsara.2011.DVD5\VIDEO_TS\VTS_01_1.VOB
Complete name : D:\Фильмы\VIDEO_TS\VTS_01_1.VOB
Format : MPEG-PS
File size : 1 024 MiB
Duration : 30mn 2s
Overall bit rate : 4 765 Kbps
Writing library : encoded by TMPGEnc (ver. 2.524.63.181)
Video
ID : 224 (0xE0)
Format : MPEG Video
Format version : Version 2
Format profile : Main@Main
Format settings, BVOP : No
Format settings, Matrix : Custom
Duration : 30mn 2s
Bit rate mode : Variable
Bit rate : 4 222 Kbps
Width : 720 pixels
Height : 480 pixels
Display aspect ratio : 16:9
Frame rate : 29.970 fps
Standard : NTSC
Color space : YUV
Chroma subsampling : 4:2:0
Bit depth : 8 bits
Scan type : Progressive
Compression mode : Lossy
Bits/(Pixel*Frame) : 0.408
Stream size : 907 MiB (89%)
Writing library : TMPGEnc 2.524.63.181
Audio
ID : 189 (0xBD)-128 (0x80)
Format : AC-3
Format/Info : Audio Coding 3
Mode extension : CM (complete main)
Muxing mode : DVD-Video
Duration : 30mn 2s
Bit rate mode : Constant
Bit rate : 448 Kbps
Channel(s) : 6 channels
Channel positions : Front: L C R, Side: L R, LFE
Sampling rate : 48.0 KHz
Bit depth : 16 bits
Compression mode : Lossy
Stream size : 96.3 MiB (9%)
Menu

DVDInfo

Title: Samsara.2011.DVD5
Size: 4.35 Gb ( 4 562 038,00 KBytes ) - DVD-5
Enabled regions: 1, 2, 3, 4, 5, 6, 7, 8
VTS_01 :
Play Length: 01:42:00
Video: NTSC 16:9 (720x480) VBR, Auto Letterboxed
Audio:
English, AC3, 3/2 (L,C,R,SL,SR)+LFE ch, 448 kbps, Delay 0 mSec

Программы, используемые при создании релиза

Видео
ProCoder 3 - конвертация видео
AviSynth - обработка видео
DGDecodeNV - индексирование
Програмы для разборки ремукса/DVD
tsMuxeR - разборка ремукса
Работа со звуком
TranzcodeGUI - извлечение WAV
Sonic Foundry Soft Encode - конвертация из формата WAV в AC3
Работа с меню и реавторинг
DVD-lab PRO 2 - реавторинг диска
Adobe Photoshop - редактирование меню

-
-

Скриншоты меню

Скриншоты

[Profile]  [PM] 
Display posts:    
Reply to topic

Current time is: 17-Oct 20:18

All times are UTC + 2



You cannot post new topics in this forum
You cannot reply to topics in this forum
You cannot edit your posts in this forum
You cannot delete your posts in this forum
You cannot vote in polls in this forum
You cannot attach files in this forum
You cannot download files in this forum