Николай Левашов "От Великой Тартарии до Петра Первого" (в 4-х частях) [2011, Научно-популярный, DVD5]

Reply to topic
 
Author
Message

Atila ®

Gender: Unknown

Longevity: 7 years 4 months

Posts: 2497

Reputation: 0 [+] [-]

Atila · Post 04-Jun-2014 03:39

[Quote] 

"От Великой Тартарии до Петра Первого"На основе работ Светланы и Николая Левашовых Год выпуска: 2011
Страна: Россия
Студия: Атакин
Режиссер: Александр Атакин
Жанр: Научно-популярный
Продолжительность: 1:51:20
Источник (релизер): Собственный рип
Описание:
Данный DVD включает в себя четыре фильма:
1. Великая Тартария. Империя Русов. (28:21)
2. Сущность в круговороте жизни и смерти. (27:20)
3. Радомир. Радость мира. (36:00)
4. Пётр и Пётр. (19:39)

Меню: Есть, анимированное
Тип релиза: DVD5
Контейнер: DVD-Video
Видео: PAL 4:3 (720*576), ~4 504 Kbps, 25.000 fps, (Main@Main) (BVOP)
Аудио: Russian AC-3, 6 ch (L,C,R,SL,SR)+LFE, 448 Kbps, 48.0 KHz, 16 bits

MediaInfo

General
Complete name : D:\Николай Левашов - От Великой Тартарии до Петра Первого (DVD5)\VIDEO_TS\VIDEO_TS.BUP
Format : DVD Video
Format profile : Menu
File size : 18.0 KiB
Overall bit rate mode : Variable
Video
ID : 224 (0xE0)
Format : MPEG Video
Format version : Version 2
Bit rate mode : Variable
Width : 720 pixels
Height : 576 pixels
Display aspect ratio : 4:3
Frame rate : 25.000 fps
Standard : PAL
Compression mode : Lossy
Audio
Format : PCM
Channel(s) : 2 channels
Sampling rate : 48.0 KHz
Text
Format : RLE
Format/Info : Run-length encoding
Bit depth : 2 bits
General
Complete name : D:\Николай Левашов - От Великой Тартарии до Петра Первого (DVD5)\VIDEO_TS\VIDEO_TS.IFO
Format : DVD Video
Format profile : Menu
File size : 18.0 KiB
Overall bit rate mode : Variable
Video
ID : 224 (0xE0)
Format : MPEG Video
Format version : Version 2
Bit rate mode : Variable
Width : 720 pixels
Height : 576 pixels
Display aspect ratio : 4:3
Frame rate : 25.000 fps
Standard : PAL
Compression mode : Lossy
Audio
Format : PCM
Channel(s) : 2 channels
Sampling rate : 48.0 KHz
Text
Format : RLE
Format/Info : Run-length encoding
Bit depth : 2 bits
General
Complete name : D:\Николай Левашов - От Великой Тартарии до Петра Первого (DVD5)\VIDEO_TS\VIDEO_TS.VOB
Format : MPEG-PS
File size : 288 KiB
Duration : 1s 240ms
Overall bit rate mode : Variable
Overall bit rate : 1 903 Kbps
Video
ID : 224 (0xE0)
Format : MPEG Video
Format version : Version 2
Format profile : Main@Main
Format settings, BVOP : No
Format settings, Matrix : Default
Format settings, GOP : N=1
Duration : 1s 240ms
Bit rate mode : Variable
Bit rate : 1 865 Kbps
Maximum bit rate : 8 000 Kbps
Width : 720 pixels
Height : 576 pixels
Display aspect ratio : 4:3
Frame rate : 25.000 fps
Standard : PAL
Color space : YUV
Chroma subsampling : 4:2:0
Bit depth : 8 bits
Scan type : Interlaced
Scan order : Bottom Field First
Compression mode : Lossy
Bits/(Pixel*Frame) : 0.180
Stream size : 282 KiB (98%)
Color primaries : BT.601 PAL
Transfer characteristics : BT.470 System B, BT.470 System G
Matrix coefficients : BT.601
Menu
General
Complete name : D:\Николай Левашов - От Великой Тартарии до Петра Первого (DVD5)\VIDEO_TS\VTS_01_0.BUP
Format : DVD Video
Format profile : Program
File size : 20.0 KiB
Duration : 7s 840ms
Overall bit rate mode : Variable
Overall bit rate : 20.9 Kbps
Video
ID : 224 (0xE0)
Format : MPEG Video
Format version : Version 2
Duration : 7s 840ms
Bit rate mode : Variable
Width : 720 pixels
Height : 576 pixels
Display aspect ratio : 4:3
Frame rate : 25.000 fps
Standard : PAL
Compression mode : Lossy
Audio
ID : 128 (0x80)
Format : AC-3
Format/Info : Audio Coding 3
Duration : 7s 840ms
Channel(s) : 6 channels
Sampling rate : 48.0 KHz
Compression mode : Lossy
Menu
Duration : 7s 840ms
00:00:00.000 : Chapter 1
List (Audio) : 0
General
Complete name : D:\Николай Левашов - От Великой Тартарии до Петра Первого (DVD5)\VIDEO_TS\VTS_01_0.IFO
Format : DVD Video
Format profile : Program
File size : 20.0 KiB
Duration : 7s 840ms
Overall bit rate mode : Variable
Overall bit rate : 20.9 Kbps
Video
ID : 224 (0xE0)
Format : MPEG Video
Format version : Version 2
Duration : 7s 840ms
Bit rate mode : Variable
Width : 720 pixels
Height : 576 pixels
Display aspect ratio : 4:3
Frame rate : 25.000 fps
Standard : PAL
Compression mode : Lossy
Audio
ID : 128 (0x80)
Format : AC-3
Format/Info : Audio Coding 3
Duration : 7s 840ms
Channel(s) : 6 channels
Sampling rate : 48.0 KHz
Compression mode : Lossy
Menu
Duration : 7s 840ms
00:00:00.000 : Chapter 1
List (Audio) : 0
General
Complete name : D:\Николай Левашов - От Великой Тартарии до Петра Первого (DVD5)\VIDEO_TS\VTS_01_0.VOB
Format : MPEG-PS
File size : 66.0 MiB
Duration : 1mn 51s
Overall bit rate mode : Variable
Overall bit rate : 4 959 Kbps
Video
ID : 224 (0xE0)
Format : MPEG Video
Format version : Version 2
Format profile : Main@Main
Format settings, BVOP : Yes
Format settings, Matrix : Default
Format settings, GOP : M=3, N=12
Duration : 1mn 51s
Bit rate mode : Variable
Maximum bit rate : 9 500 Kbps
Width : 720 pixels
Height : 576 pixels
Display aspect ratio : 4:3
Frame rate : 25.000 fps
Standard : PAL
Color space : YUV
Chroma subsampling : 4:2:0
Bit depth : 8 bits
Scan type : Interlaced
Scan order : Bottom Field First
Compression mode : Lossy
Audio #1
ID : 189 (0xBD)-128 (0x80)
Format : AC-3
Format/Info : Audio Coding 3
Mode extension : CM (complete main)
Format settings, Endianness : Big
Muxing mode : DVD-Video
Duration : 1mn 51s
Bit rate mode : Constant
Bit rate : 448 Kbps
Channel(s) : 6 channels
Channel positions : Front: L C R, Side: L R, LFE
Sampling rate : 48.0 KHz
Bit depth : 16 bits
Compression mode : Lossy
Delay relative to video : -80ms
Stream size : 5.96 MiB (9%)
Audio #2
ID : 220 (0xDC)
Format : MPEG Audio
Compression mode : Lossy
Text
ID : 189 (0xBD)-32 (0x20)
Format : RLE
Format/Info : Run-length encoding
Muxing mode : DVD-Video
Delay relative to video : -80ms
Menu
General
Complete name : D:\Николай Левашов - От Великой Тартарии до Петра Первого (DVD5)\VIDEO_TS\VTS_01_1.VOB
Format : MPEG-PS
File size : 1.98 MiB
Duration : 7s 680ms
Overall bit rate mode : Variable
Overall bit rate : 2 165 Kbps
Video
ID : 224 (0xE0)
Format : MPEG Video
Format version : Version 2
Format profile : Main@Main
Format settings, BVOP : Yes
Format settings, Matrix : Default
Format settings, GOP : M=3, N=12
Duration : 7s 680ms
Bit rate mode : Variable
Bit rate : 2 122 Kbps
Maximum bit rate : 9 500 Kbps
Width : 720 pixels
Height : 576 pixels
Display aspect ratio : 4:3
Frame rate : 25.000 fps
Standard : PAL
Color space : YUV
Chroma subsampling : 4:2:0
Bit depth : 8 bits
Scan type : Interlaced
Scan order : Bottom Field First
Compression mode : Lossy
Bits/(Pixel*Frame) : 0.205
Stream size : 1.94 MiB (98%)
Menu
General
Complete name : D:\Николай Левашов - От Великой Тартарии до Петра Первого (DVD5)\VIDEO_TS\VTS_02_0.BUP
Format : DVD Video
Format profile : Program
File size : 34.0 KiB
Duration : 28mn 21s
Overall bit rate mode : Variable
Overall bit rate : 164 bps
Video
ID : 224 (0xE0)
Format : MPEG Video
Format version : Version 2
Duration : 28mn 21s
Bit rate mode : Variable
Width : 720 pixels
Height : 576 pixels
Display aspect ratio : 4:3
Frame rate : 25.000 fps
Standard : PAL
Compression mode : Lossy
Audio
ID : 128 (0x80)
Format : AC-3
Format/Info : Audio Coding 3
Duration : 28mn 21s
Channel(s) : 6 channels
Sampling rate : 48.0 KHz
Compression mode : Lossy
Menu
Duration : 28mn 21s
00:00:00.000 : Chapter 1
00:02:55.680 : Chapter 2
00:06:50.920 : Chapter 3
00:10:40.760 : Chapter 4
00:14:36.000 : Chapter 5
00:17:38.600 : Chapter 6
00:20:50.520 : Chapter 7
00:24:23.120 : Chapter 8
List (Audio) : 0
General
Complete name : D:\Николай Левашов - От Великой Тартарии до Петра Первого (DVD5)\VIDEO_TS\VTS_02_0.IFO
Format : DVD Video
Format profile : Program
File size : 34.0 KiB
Duration : 28mn 21s
Overall bit rate mode : Variable
Overall bit rate : 164 bps
Video
ID : 224 (0xE0)
Format : MPEG Video
Format version : Version 2
Duration : 28mn 21s
Bit rate mode : Variable
Width : 720 pixels
Height : 576 pixels
Display aspect ratio : 4:3
Frame rate : 25.000 fps
Standard : PAL
Compression mode : Lossy
Audio
ID : 128 (0x80)
Format : AC-3
Format/Info : Audio Coding 3
Duration : 28mn 21s
Channel(s) : 6 channels
Sampling rate : 48.0 KHz
Compression mode : Lossy
Menu
Duration : 28mn 21s
00:00:00.000 : Chapter 1
00:02:55.680 : Chapter 2
00:06:50.920 : Chapter 3
00:10:40.760 : Chapter 4
00:14:36.000 : Chapter 5
00:17:38.600 : Chapter 6
00:20:50.520 : Chapter 7
00:24:23.120 : Chapter 8
List (Audio) : 0
General
Complete name : D:\Николай Левашов - От Великой Тартарии до Петра Первого (DVD5)\VIDEO_TS\VTS_02_1.VOB
Format : MPEG-PS
File size : 1 000 MiB
Duration : 27mn 40s
Overall bit rate mode : Variable
Overall bit rate : 5 052 Kbps
Video
ID : 224 (0xE0)
Format : MPEG Video
Format version : Version 2
Format profile : Main@Main
Format settings, BVOP : Yes
Format settings, Matrix : Default
Format settings, GOP : M=3, N=12
Duration : 27mn 40s
Bit rate mode : Variable
Bit rate : 4 504 Kbps
Maximum bit rate : 9 500 Kbps
Width : 720 pixels
Height : 576 pixels
Display aspect ratio : 4:3
Frame rate : 25.000 fps
Standard : PAL
Color space : YUV
Chroma subsampling : 4:2:0
Bit depth : 8 bits
Scan type : Interlaced
Scan order : Bottom Field First
Compression mode : Lossy
Bits/(Pixel*Frame) : 0.434
Stream size : 891 MiB (89%)
Audio
ID : 189 (0xBD)-128 (0x80)
Format : AC-3
Format/Info : Audio Coding 3
Mode extension : CM (complete main)
Format settings, Endianness : Big
Muxing mode : DVD-Video
Duration : 27mn 40s
Bit rate mode : Constant
Bit rate : 448 Kbps
Channel(s) : 6 channels
Channel positions : Front: L C R, Side: L R, LFE
Sampling rate : 48.0 KHz
Bit depth : 16 bits
Compression mode : Lossy
Delay relative to video : -80ms
Stream size : 88.7 MiB (9%)
Menu
General
Complete name : D:\Николай Левашов - От Великой Тартарии до Петра Первого (DVD5)\VIDEO_TS\VTS_02_2.VOB
Format : MPEG-PS
File size : 16.7 MiB
Duration : 40s 480ms
Overall bit rate mode : Variable
Overall bit rate : 3 469 Kbps
Video
ID : 224 (0xE0)
Format : MPEG Video
Format version : Version 2
Format profile : Main@Main
Format settings, BVOP : Yes
Format settings, Matrix : Default
Format settings, GOP : M=3, N=12
Duration : 39s 880ms
Bit rate mode : Variable
Maximum bit rate : 9 500 Kbps
Width : 720 pixels
Height : 576 pixels
Display aspect ratio : 4:3
Frame rate : 25.000 fps
Standard : PAL
Color space : YUV
Chroma subsampling : 4:2:0
Bit depth : 8 bits
Scan type : Interlaced
Scan order : Bottom Field First
Compression mode : Lossy
Audio #1
ID : 189 (0xBD)-128 (0x80)
Format : AC-3
Format/Info : Audio Coding 3
Mode extension : CM (complete main)
Format settings, Endianness : Big
Muxing mode : DVD-Video
Duration : 40s 480ms
Bit rate mode : Constant
Bit rate : 448 Kbps
Channel(s) : 6 channels
Channel positions : Front: L C R, Side: L R, LFE
Sampling rate : 48.0 KHz
Bit depth : 16 bits
Compression mode : Lossy
Delay relative to video : -736ms
Stream size : 2.16 MiB (13%)
Audio #2
ID : 223 (0xDF)
Format : MPEG Audio
Compression mode : Lossy
Menu
General
Complete name : D:\Николай Левашов - От Великой Тартарии до Петра Первого (DVD5)\VIDEO_TS\VTS_03_0.BUP
Format : DVD Video
Format profile : Program
File size : 34.0 KiB
Duration : 27mn 20s
Overall bit rate mode : Variable
Overall bit rate : 170 bps
Video
ID : 224 (0xE0)
Format : MPEG Video
Format version : Version 2
Duration : 27mn 20s
Bit rate mode : Variable
Width : 720 pixels
Height : 576 pixels
Display aspect ratio : 4:3
Frame rate : 25.000 fps
Standard : PAL
Compression mode : Lossy
Audio
ID : 128 (0x80)
Format : AC-3
Format/Info : Audio Coding 3
Duration : 27mn 20s
Channel(s) : 6 channels
Sampling rate : 48.0 KHz
Compression mode : Lossy
Menu
Duration : 27mn 20s
00:00:00.000 : Chapter 1
00:04:08.200 : Chapter 2
00:11:16.200 : Chapter 3
00:18:44.640 : Chapter 4
List (Audio) : 0
General
Complete name : D:\Николай Левашов - От Великой Тартарии до Петра Первого (DVD5)\VIDEO_TS\VTS_03_0.IFO
Format : DVD Video
Format profile : Program
File size : 34.0 KiB
Duration : 27mn 20s
Overall bit rate mode : Variable
Overall bit rate : 170 bps
Video
ID : 224 (0xE0)
Format : MPEG Video
Format version : Version 2
Duration : 27mn 20s
Bit rate mode : Variable
Width : 720 pixels
Height : 576 pixels
Display aspect ratio : 4:3
Frame rate : 25.000 fps
Standard : PAL
Compression mode : Lossy
Audio
ID : 128 (0x80)
Format : AC-3
Format/Info : Audio Coding 3
Duration : 27mn 20s
Channel(s) : 6 channels
Sampling rate : 48.0 KHz
Compression mode : Lossy
Menu
Duration : 27mn 20s
00:00:00.000 : Chapter 1
00:04:08.200 : Chapter 2
00:11:16.200 : Chapter 3
00:18:44.640 : Chapter 4
List (Audio) : 0
General
Complete name : D:\Николай Левашов - От Великой Тартарии до Петра Первого (DVD5)\VIDEO_TS\VTS_03_1.VOB
Format : MPEG-PS
File size : 987 MiB
Duration : 27mn 19s
Overall bit rate mode : Variable
Overall bit rate : 5 049 Kbps
Video
ID : 224 (0xE0)
Format : MPEG Video
Format version : Version 2
Format profile : Main@Main
Format settings, BVOP : Yes
Format settings, Matrix : Default
Format settings, GOP : M=3, N=12
Duration : 27mn 19s
Bit rate mode : Variable
Bit rate : 4 500 Kbps
Maximum bit rate : 9 500 Kbps
Width : 720 pixels
Height : 576 pixels
Display aspect ratio : 4:3
Frame rate : 25.000 fps
Standard : PAL
Color space : YUV
Chroma subsampling : 4:2:0
Bit depth : 8 bits
Scan type : Interlaced
Scan order : Bottom Field First
Compression mode : Lossy
Bits/(Pixel*Frame) : 0.434
Stream size : 880 MiB (89%)
Audio
ID : 189 (0xBD)-128 (0x80)
Format : AC-3
Format/Info : Audio Coding 3
Mode extension : CM (complete main)
Format settings, Endianness : Big
Muxing mode : DVD-Video
Duration : 27mn 19s
Bit rate mode : Constant
Bit rate : 448 Kbps
Channel(s) : 6 channels
Channel positions : Front: L C R, Side: L R, LFE
Sampling rate : 48.0 KHz
Bit depth : 16 bits
Compression mode : Lossy
Delay relative to video : -80ms
Stream size : 87.6 MiB (9%)
Menu
General
Complete name : D:\Николай Левашов - От Великой Тартарии до Петра Первого (DVD5)\VIDEO_TS\VTS_04_0.BUP
Format : DVD Video
Format profile : Program
File size : 36.0 KiB
Duration : 36mn 0s
Overall bit rate mode : Variable
Overall bit rate : 137 bps
Video
ID : 224 (0xE0)
Format : MPEG Video
Format version : Version 2
Duration : 36mn 0s
Bit rate mode : Variable
Width : 720 pixels
Height : 576 pixels
Display aspect ratio : 4:3
Frame rate : 25.000 fps
Standard : PAL
Compression mode : Lossy
Audio
ID : 128 (0x80)
Format : AC-3
Format/Info : Audio Coding 3
Duration : 36mn 0s
Channel(s) : 6 channels
Sampling rate : 48.0 KHz
Compression mode : Lossy
Menu
Duration : 36mn 0s
00:00:00.000 : Chapter 1
00:05:26.200 : Chapter 2
00:11:56.120 : Chapter 3
00:17:57.960 : Chapter 4
00:24:13.360 : Chapter 5
00:30:50.320 : Chapter 6
List (Audio) : 0
General
Complete name : D:\Николай Левашов - От Великой Тартарии до Петра Первого (DVD5)\VIDEO_TS\VTS_04_0.IFO
Format : DVD Video
Format profile : Program
File size : 36.0 KiB
Duration : 36mn 0s
Overall bit rate mode : Variable
Overall bit rate : 137 bps
Video
ID : 224 (0xE0)
Format : MPEG Video
Format version : Version 2
Duration : 36mn 0s
Bit rate mode : Variable
Width : 720 pixels
Height : 576 pixels
Display aspect ratio : 4:3
Frame rate : 25.000 fps
Standard : PAL
Compression mode : Lossy
Audio
ID : 128 (0x80)
Format : AC-3
Format/Info : Audio Coding 3
Duration : 36mn 0s
Channel(s) : 6 channels
Sampling rate : 48.0 KHz
Compression mode : Lossy
Menu
Duration : 36mn 0s
00:00:00.000 : Chapter 1
00:05:26.200 : Chapter 2
00:11:56.120 : Chapter 3
00:17:57.960 : Chapter 4
00:24:13.360 : Chapter 5
00:30:50.320 : Chapter 6
List (Audio) : 0
General
Complete name : D:\Николай Левашов - От Великой Тартарии до Петра Первого (DVD5)\VIDEO_TS\VTS_04_1.VOB
Format : MPEG-PS
File size : 1 000 MiB
Duration : 27mn 41s
Overall bit rate mode : Variable
Overall bit rate : 5 048 Kbps
Video
ID : 224 (0xE0)
Format : MPEG Video
Format version : Version 2
Format profile : Main@Main
Format settings, BVOP : Yes
Format settings, Matrix : Default
Format settings, GOP : M=3, N=12
Duration : 27mn 41s
Bit rate mode : Variable
Bit rate : 4 500 Kbps
Maximum bit rate : 9 500 Kbps
Width : 720 pixels
Height : 576 pixels
Display aspect ratio : 4:3
Frame rate : 25.000 fps
Standard : PAL
Color space : YUV
Chroma subsampling : 4:2:0
Bit depth : 8 bits
Scan type : Interlaced
Scan order : Bottom Field First
Compression mode : Lossy
Bits/(Pixel*Frame) : 0.434
Stream size : 891 MiB (89%)
Audio
ID : 189 (0xBD)-128 (0x80)
Format : AC-3
Format/Info : Audio Coding 3
Mode extension : CM (complete main)
Format settings, Endianness : Big
Muxing mode : DVD-Video
Duration : 27mn 41s
Bit rate mode : Constant
Bit rate : 448 Kbps
Channel(s) : 6 channels
Channel positions : Front: L C R, Side: L R, LFE
Sampling rate : 48.0 KHz
Bit depth : 16 bits
Compression mode : Lossy
Delay relative to video : -80ms
Stream size : 88.7 MiB (9%)
Menu
General
Complete name : D:\Николай Левашов - От Великой Тартарии до Петра Первого (DVD5)\VIDEO_TS\VTS_04_2.VOB
Format : MPEG-PS
File size : 292 MiB
Duration : 8mn 17s
Overall bit rate mode : Variable
Overall bit rate : 4 918 Kbps
Video
ID : 224 (0xE0)
Format : MPEG Video
Format version : Version 2
Format profile : Main@Main
Format settings, BVOP : Yes
Format settings, Matrix : Default
Format settings, GOP : M=3, N=12
Duration : 8mn 17s
Bit rate mode : Variable
Bit rate : 4 372 Kbps
Maximum bit rate : 9 500 Kbps
Width : 720 pixels
Height : 576 pixels
Display aspect ratio : 4:3
Frame rate : 25.000 fps
Standard : PAL
Color space : YUV
Chroma subsampling : 4:2:0
Bit depth : 8 bits
Scan type : Interlaced
Scan order : Bottom Field First
Compression mode : Lossy
Bits/(Pixel*Frame) : 0.422
Stream size : 259 MiB (89%)
Audio
ID : 189 (0xBD)-128 (0x80)
Format : AC-3
Format/Info : Audio Coding 3
Mode extension : CM (complete main)
Format settings, Endianness : Big
Muxing mode : DVD-Video
Duration : 8mn 17s
Bit rate mode : Constant
Bit rate : 448 Kbps
Channel(s) : 6 channels
Channel positions : Front: L C R, Side: L R, LFE
Sampling rate : 48.0 KHz
Bit depth : 16 bits
Compression mode : Lossy
Delay relative to video : -704ms
Stream size : 26.6 MiB (9%)
Menu
General
Complete name : D:\Николай Левашов - От Великой Тартарии до Петра Первого (DVD5)\VIDEO_TS\VTS_05_0.BUP
Format : DVD Video
Format profile : Program
File size : 28.0 KiB
Duration : 19mn 39s
Overall bit rate mode : Variable
Overall bit rate : 194 bps
Video
ID : 224 (0xE0)
Format : MPEG Video
Format version : Version 2
Duration : 19mn 39s
Bit rate mode : Variable
Width : 720 pixels
Height : 576 pixels
Display aspect ratio : 4:3
Frame rate : 25.000 fps
Standard : PAL
Compression mode : Lossy
Audio
ID : 128 (0x80)
Format : AC-3
Format/Info : Audio Coding 3
Duration : 19mn 39s
Channel(s) : 6 channels
Sampling rate : 48.0 KHz
Compression mode : Lossy
Menu
Duration : 19mn 39s
00:00:00.000 : Chapter 1
00:02:03.840 : Chapter 2
00:04:55.240 : Chapter 3
00:08:16.880 : Chapter 4
00:11:10.400 : Chapter 5
00:14:06.440 : Chapter 6
00:17:09.640 : Chapter 7
List (Audio) : 0
General
Complete name : D:\Николай Левашов - От Великой Тартарии до Петра Первого (DVD5)\VIDEO_TS\VTS_05_0.IFO
Format : DVD Video
Format profile : Program
File size : 28.0 KiB
Duration : 19mn 39s
Overall bit rate mode : Variable
Overall bit rate : 194 bps
Video
ID : 224 (0xE0)
Format : MPEG Video
Format version : Version 2
Duration : 19mn 39s
Bit rate mode : Variable
Width : 720 pixels
Height : 576 pixels
Display aspect ratio : 4:3
Frame rate : 25.000 fps
Standard : PAL
Compression mode : Lossy
Audio
ID : 128 (0x80)
Format : AC-3
Format/Info : Audio Coding 3
Duration : 19mn 39s
Channel(s) : 6 channels
Sampling rate : 48.0 KHz
Compression mode : Lossy
Menu
Duration : 19mn 39s
00:00:00.000 : Chapter 1
00:02:03.840 : Chapter 2
00:04:55.240 : Chapter 3
00:08:16.880 : Chapter 4
00:11:10.400 : Chapter 5
00:14:06.440 : Chapter 6
00:17:09.640 : Chapter 7
List (Audio) : 0
General
Complete name : D:\Николай Левашов - От Великой Тартарии до Петра Первого (DVD5)\VIDEO_TS\VTS_05_1.VOB
Format : MPEG-PS
File size : 702 MiB
Duration : 19mn 39s
Overall bit rate mode : Variable
Overall bit rate : 4 992 Kbps
Video
ID : 224 (0xE0)
Format : MPEG Video
Format version : Version 2
Format profile : Main@Main
Format settings, BVOP : Yes
Format settings, Matrix : Default
Format settings, GOP : M=3, N=12
Duration : 19mn 39s
Bit rate mode : Variable
Bit rate : 4 445 Kbps
Maximum bit rate : 9 500 Kbps
Width : 720 pixels
Height : 576 pixels
Display aspect ratio : 4:3
Frame rate : 25.000 fps
Standard : PAL
Color space : YUV
Chroma subsampling : 4:2:0
Bit depth : 8 bits
Scan type : Interlaced
Scan order : Bottom Field First
Compression mode : Lossy
Bits/(Pixel*Frame) : 0.429
Stream size : 625 MiB (89%)
Audio
ID : 189 (0xBD)-128 (0x80)
Format : AC-3
Format/Info : Audio Coding 3
Mode extension : CM (complete main)
Format settings, Endianness : Big
Muxing mode : DVD-Video
Duration : 19mn 38s
Bit rate mode : Constant
Bit rate : 448 Kbps
Channel(s) : 6 channels
Channel positions : Front: L C R, Side: L R, LFE
Sampling rate : 48.0 KHz
Bit depth : 16 bits
Compression mode : Lossy
Delay relative to video : -80ms
Stream size : 63.0 MiB (9%)
Menu

DVDInfo

Title: Николай Левашов - От Великой Тартарии до Петра Первого (DVD5)
Size: 3.97 Gb ( 4 163 170,00 KBytes ) - DVD-5
Enabled regions: 1, 2, 3, 4, 5, 6, 7, 8
VTS_01 :
Play Length: 00:00:07
Video: PAL 4:3 (720x576) VBR
Audio:
Not specified (Dolby AC3, 6 ch)
VTS_02 :
Play Length: 00:28:21
Video: PAL 4:3 (720x576) VBR
Audio:
Not specified (Dolby AC3, 6 ch)
VTS_03 :
Play Length: 00:27:20
Video: PAL 4:3 (720x576) VBR
Audio:
Not specified (Dolby AC3, 6 ch)
VTS_04 :
Play Length: 00:36:00
Video: PAL 4:3 (720x576) VBR
Audio:
Not specified (Dolby AC3, 6 ch)
VTS_05 :
Play Length: 00:19:39
Video: PAL 4:3 (720x576) VBR
Audio:
Not specified (Dolby AC3, 6 ch)
* Menus Information *
VIDEO_TS Menu
Video:
PAL 4:3 (720x576) VBR
Audio:
Not specified (LinearPCM, 2 ch)
English Language Unit :
Title Menu
VTS_01 Menu
Video:
PAL 4:3 (720x576) VBR
Audio:
Not specified (Dolby AC3, 6 ch)
English Language Unit :
Root Menu
Chapter (PTT) Menu
VTS_02 Menu
Video:
NTSC 4:3 (720x480) VBR
Auto Pan&Scan, Auto Letterboxed
English Language Unit :
Root Menu
Chapter (PTT) Menu
VTS_03 Menu
Video:
NTSC 4:3 (720x480) VBR
Auto Pan&Scan, Auto Letterboxed
English Language Unit :
Root Menu
Chapter (PTT) Menu
VTS_04 Menu
Video:
NTSC 4:3 (720x480) VBR
Auto Pan&Scan, Auto Letterboxed
English Language Unit :
Root Menu
Chapter (PTT) Menu
VTS_05 Menu
Video:
NTSC 4:3 (720x480) VBR
Auto Pan&Scan, Auto Letterboxed
English Language Unit :
Root Menu
Chapter (PTT) Menu

Скриншоты меню

[Profile]  [PM] 
Display posts:    
Reply to topic

Current time is: 17-Oct 21:00

All times are UTC + 2



You cannot post new topics in this forum
You cannot reply to topics in this forum
You cannot edit your posts in this forum
You cannot delete your posts in this forum
You cannot vote in polls in this forum
You cannot attach files in this forum
You cannot download files in this forum