Путораны или путешествие по Енисею в страну базальтовых сомбреро (Олег Долженков) [2009, Документальный, DVD5]

Reply to topic
 
Author
Message

Atila ®

Gender: Unknown

Longevity: 7 years 4 months

Posts: 2497

Reputation: 0 [+] [-]

Atila · Post 04-Jun-2014 03:42

[Quote] 

Путораны или путешествие по Енисею в страну базальтовых сомбреро
Год выпуска: 2009
Страна: Россия
Студия: "Дыхание"
Жанр: Документальный
Продолжительность: 00:59:00
Перевод: Не требуется
Русские субтитры: нет
Режиссер: Олег Долженков
Описание: Фильм, созданный на основе материалов экспедиции на плато Путорана. Плато считается краем каньонов, рек, озер и водопадов , является самым северным и одним из самых древних плато вулканического происхождения. Экспедиция объединила в одном маршруте путешествие протяженностью 2700 км на моторных катамаранах собственной конструкции по великой сибирской реке Енисею и его притоку Курейке и пеший поход длиной 200 км по наиболее возвышенной части плато Путорана.
Бонусы: клип "Дороги"
Меню: статичное меню
Тип релиза: DVD5
Контейнер: DVD-Video
Видео: MPEG2, PAL, 720 x 576, VBR, 4:3, 7000 kbps, 25 frms
Аудио: Russian, PCM, 2ch, 48kHz, 1536kbps

DVDInfo & MediaInfo

Title: DVDPutorani2008
Size: 3.88 Gb ( 4 064 960,00 KBytes ) - DVD-5
Enabled regions: 1, 2, 3, 4, 5, 6, 7, 8
VTS_01 :
Play Length: 00:59:07
Video: PAL 4:3 (720x576) VBR
Audio:
English, LPCM
VTS_02 :
Play Length: 00:03:56
Video: PAL 4:3 (720x576) VBR
Audio:
English, LPCM
* Menus Information *
VIDEO_TS Menu
Video:
PAL 4:3 (720x576) VBR
English Language Unit :
Title Menu
VTS_01 Menu
Video:
PAL 4:3 (720x576) VBR
Audio:
Not specified (Dolby AC3, 2 ch)
English Language Unit :
Root Menu
VTS_02 Menu
Video:
PAL 4:3 (720x576) VBR
English Language Unit :
Root Menu-MediaInfo
Общее
Полное имя : Z:\Dyhanie\DVD_PUTORANY2008\DVDPutorani2008\VIDEO_TS\VIDEO_TS.BUP
Формат : DVD Video
Профиль формата : Menu
Размер файла : 12,0 Кбайт
Режим общего битрейта : Переменный
Видео
Идентификатор : 224 (0xE0)
Формат : MPEG Video
Версия формата : Version 2
Вид битрейта : Переменный
Ширина : 720 пикселей
Высота : 576 пикселей
Соотношение сторон : 4:3
Частота кадров : 25,000 кадров/сек
Стандарт вещания : PAL
Метод сжатия : С потерями
Текст
Формат : RLE
Формат/Информация : Run-length encoding
Битовая глубина : 2 бит
Общее
Полное имя : Z:\Dyhanie\DVD_PUTORANY2008\DVDPutorani2008\VIDEO_TS\VIDEO_TS.IFO
Формат : DVD Video
Профиль формата : Menu
Размер файла : 12,0 Кбайт
Режим общего битрейта : Переменный
Видео
Идентификатор : 224 (0xE0)
Формат : MPEG Video
Версия формата : Version 2
Вид битрейта : Переменный
Ширина : 720 пикселей
Высота : 576 пикселей
Соотношение сторон : 4:3
Частота кадров : 25,000 кадров/сек
Стандарт вещания : PAL
Метод сжатия : С потерями
Текст
Формат : RLE
Формат/Информация : Run-length encoding
Битовая глубина : 2 бит
Общее
Полное имя : Z:\Dyhanie\DVD_PUTORANY2008\DVDPutorani2008\VIDEO_TS\VIDEO_TS.VOB
Формат : MPEG-PS
Размер файла : 10,0 Кбайт
Продолжительность : 40 мс.
Общий поток : 2048 Кбит/сек
Видео
Идентификатор : 224 (0xE0)
Формат : MPEG Video
Версия формата : Version 2
Профиль формата : Main@Main
Параметр BVOP формата : Нет
Параметр матрицы формата : Выборочная
Продолжительность : 40 мс.
Максимальный битрейт : 9000 Кбит/сек
Ширина : 720 пикселей
Высота : 576 пикселей
Соотношение сторон : 4:3
Частота кадров : 25,000 кадров/сек
Стандарт вещания : PAL
Цветовое пространство : YUV
Субдискретизация насыщенности : 4:2:0
Битовая глубина : 8 бит
Тип развёртки : Прогрессивная
Порядок развёртки : Верхнее поле первое
Метод сжатия : С потерями
Основные цвета : BT.601 NTSC
Характеристики трансфера : BT.601
Коэффициенты матрицы : BT.601
Меню
Общее
Полное имя : Z:\Dyhanie\DVD_PUTORANY2008\DVDPutorani2008\VIDEO_TS\VTS_01_0.BUP
Формат : DVD Video
Профиль формата : Program
Размер файла : 50,0 Кбайт
Продолжительность : 59 м.
Режим общего битрейта : Переменный
Общий поток : 115 бит/сек
Видео
Идентификатор : 224 (0xE0)
Формат : MPEG Video
Версия формата : Version 2
Продолжительность : 59 м.
Вид битрейта : Переменный
Ширина : 720 пикселей
Высота : 576 пикселей
Соотношение сторон : 4:3
Частота кадров : 25,000 кадров/сек
Стандарт вещания : PAL
Метод сжатия : С потерями
Аудио
Идентификатор : 0 (0x0)
Формат : PCM
Продолжительность : 59 м.
Каналы : 2 канала
Частота : 48,0 КГц
Язык : English
Меню
Продолжительность : 59 м.
00:00:00.000 : Chapter 1
00:00:13.760 : Chapter 2
00:06:36.440 : Chapter 3
00:13:27.080 : Chapter 4
00:17:21.640 : Chapter 5
00:23:02.480 : Chapter 6
00:28:17.160 : Chapter 7
00:32:31.080 : Chapter 8
00:36:41.600 : Chapter 9
00:43:47.720 : Chapter 10
00:50:14.480 : Chapter 11
List (Audio) : 0
Общее
Полное имя : Z:\Dyhanie\DVD_PUTORANY2008\DVDPutorani2008\VIDEO_TS\VTS_01_0.IFO
Формат : DVD Video
Профиль формата : Program
Размер файла : 50,0 Кбайт
Продолжительность : 59 м.
Режим общего битрейта : Переменный
Общий поток : 115 бит/сек
Видео
Идентификатор : 224 (0xE0)
Формат : MPEG Video
Версия формата : Version 2
Продолжительность : 59 м.
Вид битрейта : Переменный
Ширина : 720 пикселей
Высота : 576 пикселей
Соотношение сторон : 4:3
Частота кадров : 25,000 кадров/сек
Стандарт вещания : PAL
Метод сжатия : С потерями
Аудио
Идентификатор : 0 (0x0)
Формат : PCM
Продолжительность : 59 м.
Каналы : 2 канала
Частота : 48,0 КГц
Язык : English
Меню
Продолжительность : 59 м.
00:00:00.000 : Chapter 1
00:00:13.760 : Chapter 2
00:06:36.440 : Chapter 3
00:13:27.080 : Chapter 4
00:17:21.640 : Chapter 5
00:23:02.480 : Chapter 6
00:28:17.160 : Chapter 7
00:32:31.080 : Chapter 8
00:36:41.600 : Chapter 9
00:43:47.720 : Chapter 10
00:50:14.480 : Chapter 11
List (Audio) : 0
Общее
Полное имя : Z:\Dyhanie\DVD_PUTORANY2008\DVDPutorani2008\VIDEO_TS\VTS_01_0.VOB
Формат : MPEG-PS
Размер файла : 29,8 Мбайт
Продолжительность : 2 м. 9 с.
Режим общего битрейта : Переменный
Общий поток : 1938 Кбит/сек
Видео
Идентификатор : 224 (0xE0)
Формат : MPEG Video
Версия формата : Version 2
Профиль формата : Main@Main
Параметр BVOP формата : Нет
Параметр матрицы формата : Выборочная
Продолжительность : 171 мс.
Вид битрейта : Переменный
Битрейт : 1708 Кбит/сек
Максимальный битрейт : 9000 Кбит/сек
Ширина : 720 пикселей
Высота : 576 пикселей
Соотношение сторон : 4:3
Частота кадров : 25,000 кадров/сек
Стандарт вещания : PAL
Цветовое пространство : YUV
Субдискретизация насыщенности : 4:2:0
Битовая глубина : 8 бит
Тип развёртки : Прогрессивная
Порядок развёртки : Верхнее поле первое
Метод сжатия : С потерями
Бит/(Пиксели*Кадры) : 0.165
Размер потока : 33,4 Кбайт (0%)
Основные цвета : BT.601 NTSC
Характеристики трансфера : BT.601
Коэффициенты матрицы : BT.601
Аудио
Идентификатор : 189 (0xBD)-128 (0x80)
Формат : AC-3
Формат/Информация : Audio Coding 3
Расширение режима : CM (complete main)
Параметр Endianness формата : Big
Режим смешивания : DVD-Video
Продолжительность : 2 м. 9 с.
Вид битрейта : Постоянный
Битрейт : 192 Кбит/сек
Каналы : 2 канала
Расположение каналов : Front: L R
Частота : 48,0 КГц
Битовая глубина : 16 бит
Метод сжатия : С потерями
Задержка видео : 65 мс.
Размер потока : 2,95 Мбайт (10%)
Текст
Идентификатор : 189 (0xBD)-32 (0x20)
Формат : RLE
Формат/Информация : Run-length encoding
Режим смешивания : DVD-Video
Продолжительность : 66 мс.
Задержка видео : 65 мс.
Меню
Общее
Полное имя : Z:\Dyhanie\DVD_PUTORANY2008\DVDPutorani2008\VIDEO_TS\VTS_01_1.VOB
Формат : MPEG-PS
Размер файла : 1024 Мбайт
Продолжительность : 16 м.
Общий поток : 8684 Кбит/сек
Видео
Идентификатор : 224 (0xE0)
Формат : MPEG Video
Версия формата : Version 2
Профиль формата : Main@Main
Параметр BVOP формата : Да
Параметр матрицы формата : Выборочная
Параметр GOP формата : Variable
Продолжительность : 16 м.
Битрейт : 7000 Кбит/сек
Ширина : 720 пикселей
Высота : 576 пикселей
Соотношение сторон : 4:3
Частота кадров : 25,000 кадров/сек
Стандарт вещания : PAL
Цветовое пространство : YUV
Субдискретизация насыщенности : 4:2:0
Битовая глубина : 8 бит
Тип развёртки : Чересстрочная
Порядок развёртки : Верхнее поле первое
Метод сжатия : С потерями
Бит/(Пиксели*Кадры) : 0.675
Размер потока : 822 Мбайт (80%)
Аудио
Идентификатор : 189 (0xBD)-160 (0xA0)
Формат : PCM
Параметр Endianness формата : Big
Параметр Sign формата : Signed
Режим смешивания : DVD-Video
Продолжительность : 16 м.
Вид битрейта : Постоянный
Битрейт : 1536 Кбит/сек
Каналы : 2 канала
Частота : 48,0 КГц
Битовая глубина : 16 бит
Размер потока : 181 Мбайт (18%)
Меню
Общее
Полное имя : Z:\Dyhanie\DVD_PUTORANY2008\DVDPutorani2008\VIDEO_TS\VTS_01_2.VOB
Формат : MPEG-PS
Размер файла : 1024 Мбайт
Продолжительность : 16 м.
Общий поток : 8685 Кбит/сек
Видео
Идентификатор : 224 (0xE0)
Формат : MPEG Video
Версия формата : Version 2
Профиль формата : Main@Main
Параметр BVOP формата : Да
Параметр матрицы формата : Выборочная
Параметр GOP формата : Variable
Продолжительность : 16 м.
Битрейт : 7000 Кбит/сек
Ширина : 720 пикселей
Высота : 576 пикселей
Соотношение сторон : 4:3
Частота кадров : 25,000 кадров/сек
Стандарт вещания : PAL
Цветовое пространство : YUV
Субдискретизация насыщенности : 4:2:0
Битовая глубина : 8 бит
Тип развёртки : Чересстрочная
Порядок развёртки : Верхнее поле первое
Метод сжатия : С потерями
Бит/(Пиксели*Кадры) : 0.675
Размер потока : 822 Мбайт (80%)
Аудио
Идентификатор : 189 (0xBD)-160 (0xA0)
Формат : PCM
Параметр Endianness формата : Big
Параметр Sign формата : Signed
Режим смешивания : DVD-Video
Продолжительность : 16 м.
Вид битрейта : Постоянный
Битрейт : 1536 Кбит/сек
Каналы : 2 канала
Частота : 48,0 КГц
Битовая глубина : 16 бит
Задержка видео : -598 мс.
Размер потока : 181 Мбайт (18%)
Меню
Общее
Полное имя : Z:\Dyhanie\DVD_PUTORANY2008\DVDPutorani2008\VIDEO_TS\VTS_01_3.VOB
Формат : MPEG-PS
Размер файла : 1024 Мбайт
Продолжительность : 16 м.
Общий поток : 8686 Кбит/сек
Видео
Идентификатор : 224 (0xE0)
Формат : MPEG Video
Версия формата : Version 2
Профиль формата : Main@Main
Параметр BVOP формата : Да
Параметр матрицы формата : Выборочная
Параметр GOP формата : Variable
Продолжительность : 16 м.
Битрейт : 7000 Кбит/сек
Ширина : 720 пикселей
Высота : 576 пикселей
Соотношение сторон : 4:3
Частота кадров : 25,000 кадров/сек
Стандарт вещания : PAL
Цветовое пространство : YUV
Субдискретизация насыщенности : 4:2:0
Битовая глубина : 8 бит
Тип развёртки : Чересстрочная
Порядок развёртки : Верхнее поле первое
Метод сжатия : С потерями
Бит/(Пиксели*Кадры) : 0.675
Размер потока : 822 Мбайт (80%)
Аудио
Идентификатор : 189 (0xBD)-160 (0xA0)
Формат : PCM
Параметр Endianness формата : Big
Параметр Sign формата : Signed
Режим смешивания : DVD-Video
Продолжительность : 16 м.
Вид битрейта : Постоянный
Битрейт : 1536 Кбит/сек
Каналы : 2 канала
Частота : 48,0 КГц
Битовая глубина : 16 бит
Задержка видео : -374 мс.
Размер потока : 181 Мбайт (18%)
Меню
Общее
Полное имя : Z:\Dyhanie\DVD_PUTORANY2008\DVDPutorani2008\VIDEO_TS\VTS_01_4.VOB
Формат : MPEG-PS
Размер файла : 601 Мбайт
Продолжительность : 9 м. 40 с.
Общий поток : 8684 Кбит/сек
Видео
Идентификатор : 224 (0xE0)
Формат : MPEG Video
Версия формата : Version 2
Профиль формата : Main@Main
Параметр BVOP формата : Да
Параметр матрицы формата : Выборочная
Параметр GOP формата : Variable
Продолжительность : 9 м. 39 с.
Битрейт : 7000 Кбит/сек
Ширина : 720 пикселей
Высота : 576 пикселей
Соотношение сторон : 4:3
Частота кадров : 25,000 кадров/сек
Стандарт вещания : PAL
Цветовое пространство : YUV
Субдискретизация насыщенности : 4:2:0
Битовая глубина : 8 бит
Тип развёртки : Чересстрочная
Порядок развёртки : Верхнее поле первое
Метод сжатия : С потерями
Бит/(Пиксели*Кадры) : 0.675
Размер потока : 482 Мбайт (80%)
Аудио
Идентификатор : 189 (0xBD)-160 (0xA0)
Формат : PCM
Параметр Endianness формата : Big
Параметр Sign формата : Signed
Режим смешивания : DVD-Video
Продолжительность : 9 м. 40 с.
Вид битрейта : Постоянный
Битрейт : 1536 Кбит/сек
Каналы : 2 канала
Частота : 48,0 КГц
Битовая глубина : 16 бит
Задержка видео : -675 мс.
Размер потока : 106 Мбайт (18%)
Меню
Общее
Полное имя : Z:\Dyhanie\DVD_PUTORANY2008\DVDPutorani2008\VIDEO_TS\VTS_02_0.BUP
Формат : DVD Video
Профиль формата : Program
Размер файла : 18,0 Кбайт
Продолжительность : 3 м. 56 с.
Режим общего битрейта : Переменный
Общий поток : 623 бит/сек
Видео
Идентификатор : 224 (0xE0)
Формат : MPEG Video
Версия формата : Version 2
Продолжительность : 3 м. 56 с.
Вид битрейта : Переменный
Ширина : 720 пикселей
Высота : 576 пикселей
Соотношение сторон : 4:3
Частота кадров : 25,000 кадров/сек
Стандарт вещания : PAL
Метод сжатия : С потерями
Аудио
Идентификатор : 0 (0x0)
Формат : PCM
Продолжительность : 3 м. 56 с.
Каналы : 2 канала
Частота : 48,0 КГц
Язык : English
Меню
Продолжительность : 3 м. 56 с.
00:00:00.000 : Chapter 1
00:00:12.120 : Chapter 2
List (Audio) : 0
Общее
Полное имя : Z:\Dyhanie\DVD_PUTORANY2008\DVDPutorani2008\VIDEO_TS\VTS_02_0.IFO
Формат : DVD Video
Профиль формата : Program
Размер файла : 18,0 Кбайт
Продолжительность : 3 м. 56 с.
Режим общего битрейта : Переменный
Общий поток : 623 бит/сек
Видео
Идентификатор : 224 (0xE0)
Формат : MPEG Video
Версия формата : Version 2
Продолжительность : 3 м. 56 с.
Вид битрейта : Переменный
Ширина : 720 пикселей
Высота : 576 пикселей
Соотношение сторон : 4:3
Частота кадров : 25,000 кадров/сек
Стандарт вещания : PAL
Метод сжатия : С потерями
Аудио
Идентификатор : 0 (0x0)
Формат : PCM
Продолжительность : 3 м. 56 с.
Каналы : 2 канала
Частота : 48,0 КГц
Язык : English
Меню
Продолжительность : 3 м. 56 с.
00:00:00.000 : Chapter 1
00:00:12.120 : Chapter 2
List (Audio) : 0
Общее
Полное имя : Z:\Dyhanie\DVD_PUTORANY2008\DVDPutorani2008\VIDEO_TS\VTS_02_0.VOB
Формат : MPEG-PS
Размер файла : 10,0 Кбайт
Продолжительность : 40 мс.
Общий поток : 2048 Кбит/сек
Видео
Идентификатор : 224 (0xE0)
Формат : MPEG Video
Версия формата : Version 2
Профиль формата : Main@Main
Параметр BVOP формата : Нет
Параметр матрицы формата : Выборочная
Продолжительность : 40 мс.
Максимальный битрейт : 9000 Кбит/сек
Ширина : 720 пикселей
Высота : 576 пикселей
Соотношение сторон : 4:3
Частота кадров : 25,000 кадров/сек
Стандарт вещания : PAL
Цветовое пространство : YUV
Субдискретизация насыщенности : 4:2:0
Битовая глубина : 8 бит
Тип развёртки : Прогрессивная
Порядок развёртки : Верхнее поле первое
Метод сжатия : С потерями
Основные цвета : BT.601 NTSC
Характеристики трансфера : BT.601
Коэффициенты матрицы : BT.601
Меню
Общее
Полное имя : Z:\Dyhanie\DVD_PUTORANY2008\DVDPutorani2008\VIDEO_TS\VTS_02_1.VOB
Формат : MPEG-PS
Размер файла : 267 Мбайт
Продолжительность : 3 м. 56 с.
Общий поток : 9487 Кбит/сек
Видео
Идентификатор : 224 (0xE0)
Формат : MPEG Video
Версия формата : Version 2
Профиль формата : Main@Main
Параметр BVOP формата : Да
Параметр матрицы формата : Выборочная
Параметр GOP формата : M=3, N=15
Продолжительность : 3 м. 56 с.
Битрейт : 7800 Кбит/сек
Ширина : 720 пикселей
Высота : 576 пикселей
Соотношение сторон : 4:3
Частота кадров : 25,000 кадров/сек
Стандарт вещания : PAL
Цветовое пространство : YUV
Субдискретизация насыщенности : 4:2:0
Битовая глубина : 8 бит
Тип развёртки : Чересстрочная
Порядок развёртки : Верхнее поле первое
Метод сжатия : С потерями
Бит/(Пиксели*Кадры) : 0.752
Размер потока : 219 Мбайт (82%)
Аудио
Идентификатор : 189 (0xBD)-160 (0xA0)
Формат : PCM
Параметр Endianness формата : Big
Параметр Sign формата : Signed
Режим смешивания : DVD-Video
Продолжительность : 3 м. 56 с.
Вид битрейта : Постоянный
Битрейт : 1536 Кбит/сек
Каналы : 2 канала
Частота : 48,0 КГц
Битовая глубина : 16 бит
Размер потока : 43,3 Мбайт (16%)
Меню

Скриншоты меню

Скриншоты



Скриншоты доп. материалов

[Profile]  [PM] 
Display posts:    
Reply to topic

Current time is: 17-Oct 19:42

All times are UTC + 2



You cannot post new topics in this forum
You cannot reply to topics in this forum
You cannot edit your posts in this forum
You cannot delete your posts in this forum
You cannot vote in polls in this forum
You cannot attach files in this forum
You cannot download files in this forum