НЛО и паранормальные явления (3 серии из 5) / UFOs & Paranormal Phenomena (Juhan Af Grann\\Юхан Аф Гранн) [1997, документальный, VHSRip]

Reply to topic
 
Author
Message

Atila ®

Gender: Unknown

Longevity: 7 years 4 months

Posts: 2497

Reputation: 0 [+] [-]

Atila · Post 17-Jan-2015 18:55

[Quote] 

НЛО и паранормальные явления (3 серии из 5) / UFOs & Paranormal Phenomena
Год выпуска: 1997
Страна: USA
Жанр: документальный
Продолжительность: 2:57:55
Перевод: Авторский (одноголосый закадровый)
Доп. инфо о переводе: Визгунов
Русские субтитры: нет
Режиссер: Juhan Af Grann\Юхан Аф Гранн
Описание: Документальный минисериал о паранормальных явлениях. Здесь 3 серии по ~57-60 минут - "Послания из параллельного мира" и "Тайны жизни и смерти (части 1 и 2)".
Существует ещё кассета с сериями "Контакты 5-го уровня (части 1 и 2)" но она у меня не сохранилась.

4.01.15 Торрент перезалит в связи с правилами. Добавлена папка VIDEO_TS.

Доп. информация: AverTV - оцифровка с кассеты
MPEG Video Wizard DVD 5.0 - создание двд-образа
Бонусы: нету
Меню: отсутствует
Сэмпл: http://rusfolder.com/42678878
Главы (разбивка по трекам): есть
Качество: VHSRip
Формат: DVD Video
Видео кодек: MPEG2
Аудио кодек: MP2
Видео: MPEG2 Video 720x576 (4:3) 25.00fps 4543kbps 0.303
Аудио: MPEG Audio 48000Hz stereo 192kbps

DVDInfo

Title:Size: 4.31 Gb ( 4 515 462 KBytes ) - DVD-5Enabled regions: 1, 2, 3, 4, 5, 6, 7, 8
VTS_01 : Play Length: 02:57:55 Video: PAL 4:3 (720x576) VBR Audio: English (MPEG1, 2 ch)

MediaInfo

GeneralComplete name                    : D:\UFOs & Paranormal Phenomena\VIDEO_TS\VTS_01_1.VOBFormat                           : MPEG-PSFile size                        : 1 024 MiBDuration                         : 41mn 18sOverall bit rate                 : 3 466 KbpsWriting library                  : (dvd5: Jun 16 2014)
VideoID : 224 (0xE0)Format : MPEG VideoFormat version : Version 2Format profile : Main@MainFormat settings, Matrix : DefaultDuration : 41mn 18sBit rate mode : VariableBit rate : 3 137 KbpsNominal bit rate : 4 543 KbpsWidth : 720 pixelsHeight : 576 pixelsDisplay aspect ratio : 4:3Frame rate : 25.000 fpsStandard : PALColorimetry : 4:2:0Scan type : ProgressiveBits/(Pixel*Frame) : 0.303Stream size : 927 MiB (90%)Writing library : (dvd5: Jun 16 2014)
AudioID : 192 (0xC0)Format : MPEG AudioFormat version : Version 1Format profile : Layer 2Duration : 41mn 17sBit rate mode : ConstantBit rate : 192 KbpsChannel(s) : 2 channelsSampling rate : 48.0 KHzResolution : 16 bitsVideo delay : -80msStream size : 56.7 MiB (6%)
GeneralComplete name : D:\UFOs & Paranormal Phenomena\VIDEO_TS\VTS_01_2.VOBFormat : MPEG-PSFile size : 1 024 MiBDuration : 41mn 16sOverall bit rate : 3 469 Kbps
VideoID : 224 (0xE0)Format : MPEG VideoFormat version : Version 2Format profile : Main@MainFormat settings, Matrix : DefaultDuration : 41mn 16sBit rate mode : VariableBit rate : 3 139 KbpsNominal bit rate : 4 543 KbpsWidth : 720 pixelsHeight : 576 pixelsDisplay aspect ratio : 4:3Frame rate : 25.000 fpsStandard : PALColorimetry : 4:2:0Scan type : ProgressiveBits/(Pixel*Frame) : 0.303Stream size : 927 MiB (90%)
AudioID : 192 (0xC0)Format : MPEG AudioFormat version : Version 1Format profile : Layer 2Duration : 41mn 16sBit rate mode : ConstantBit rate : 192 KbpsChannel(s) : 2 channelsSampling rate : 48.0 KHzResolution : 16 bitsVideo delay : -248msStream size : 56.7 MiB (6%)
Menu
GeneralComplete name : D:\UFOs & Paranormal Phenomena\VIDEO_TS\VTS_01_3.VOBFormat : MPEG-PSFile size : 1 024 MiBDuration : 41mn 13sOverall bit rate : 3 473 Kbps
VideoID : 224 (0xE0)Format : MPEG VideoFormat version : Version 2Format profile : Main@MainFormat settings, Matrix : DefaultDuration : 41mn 13sBit rate mode : VariableBit rate : 3 143 KbpsNominal bit rate : 4 543 KbpsWidth : 720 pixelsHeight : 576 pixelsDisplay aspect ratio : 4:3Frame rate : 25.000 fpsStandard : PALColorimetry : 4:2:0Scan type : ProgressiveBits/(Pixel*Frame) : 0.303Stream size : 927 MiB (91%)
AudioID : 192 (0xC0)Format : MPEG AudioFormat version : Version 1Format profile : Layer 2Duration : 41mn 13sBit rate mode : ConstantBit rate : 192 KbpsChannel(s) : 2 channelsSampling rate : 48.0 KHzResolution : 16 bitsVideo delay : -336msStream size : 56.6 MiB (6%)
GeneralComplete name : D:\UFOs & Paranormal Phenomena\VIDEO_TS\VTS_01_4.VOBFormat : MPEG-PSFile size : 1 024 MiBDuration : 41mn 22sOverall bit rate : 3 460 Kbps
VideoID : 224 (0xE0)Format : MPEG VideoFormat version : Version 2Format profile : Main@MainFormat settings, Matrix : DefaultDuration : 41mn 22sBit rate mode : VariableBit rate : 3 130 KbpsNominal bit rate : 4 543 KbpsWidth : 720 pixelsHeight : 576 pixelsDisplay aspect ratio : 4:3Frame rate : 25.000 fpsStandard : PALColorimetry : 4:2:0Scan type : ProgressiveBits/(Pixel*Frame) : 0.302Stream size : 927 MiB (90%)
AudioID : 192 (0xC0)Format : MPEG AudioFormat version : Version 1Format profile : Layer 2Duration : 41mn 22sBit rate mode : ConstantBit rate : 192 KbpsChannel(s) : 2 channelsSampling rate : 48.0 KHzResolution : 16 bitsVideo delay : -408msStream size : 56.8 MiB (6%)
GeneralComplete name : D:\UFOs & Paranormal Phenomena\VIDEO_TS\VTS_01_5.VOBFormat : MPEG-PSFile size : 313 MiBDuration : 12mn 44sOverall bit rate : 3 437 Kbps
VideoID : 224 (0xE0)Format : MPEG VideoFormat version : Version 2Format profile : Main@MainFormat settings, Matrix : DefaultDuration : 12mn 39sBit rate mode : VariableBit rate : 3 108 KbpsNominal bit rate : 4 543 KbpsWidth : 720 pixelsHeight : 576 pixelsDisplay aspect ratio : 4:3Frame rate : 25.000 fpsStandard : PALColorimetry : 4:2:0Scan type : ProgressiveBits/(Pixel*Frame) : 0.300Stream size : 282 MiB (90%)
AudioID : 192 (0xC0)Format : MPEG AudioFormat version : Version 1Format profile : Layer 2Duration : 12mn 44sBit rate mode : ConstantBit rate : 192 KbpsChannel(s) : 2 channelsSampling rate : 48.0 KHzResolution : 16 bitsVideo delay : -696msStream size : 17.5 MiB (6%)
Menu

Скриншоты

[Profile]  [PM] 
Display posts:    
Reply to topic

Current time is: 17-Oct 20:21

All times are UTC + 2



You cannot post new topics in this forum
You cannot reply to topics in this forum
You cannot edit your posts in this forum
You cannot delete your posts in this forum
You cannot vote in polls in this forum
You cannot attach files in this forum
You cannot download files in this forum