Високосный год / Leap Year (Ананд Такер / Anand Tucker) [2010 г., Комедия, BDRip]

Reply to topic
 
Author
Message

Varg ®

Gender: Unknown

Longevity: 11 years

Posts: 2762

Reputation: 0 [+] [-]

Varg · Post 25-Apr-2010 17:05

[Quote] 

Високосный год / Leap Year- Год выпуска: 2010
Страна: США, Ирландия
Жанр: Комедия
Продолжительность: 1h 40mn 25s 893ms
Перевод: Любительский (одноголосый)
Русские субтитры: нет--Режиссер
Ананд Такер / Anand Tucker--В ролях
Эми Адамс, Мэттью Гуд, Адам Скотт, Джон Литгоу, Ноэль О`Донован, Тони Рор, Пэт Лаффан, Алан Девлин, Йен МакЭлхинни, Доминик МакЭллигот--Описание
В англоязычных странах есть традиция — 29 февраля женщина может сделать предложение мужчине, и он не имеет права отказаться. И вот чопорная дама едет в Дублин, чтобы именно в этот день попробовать сделать предложение своему бойфренду. Но погода меняет её планы, и чтобы осуществить задуманное, ей приходится прибегнуть к помощи ворчливого ирландца — хозяина гостиницы. Вместе с ним героиня вынуждена путешествовать через всю страну, чтобы успеть вовремя сделать предложение.--Качество: BDRip
Формат: MKV
Аудио кодек: AC-3
Видео: AVC at 3 272 Kbps 1280 x 534 (2.397) at 24.390 fps
Аудио: AC-3 at 192 Kbps 2 channels, 48.0 KHz
--- --

Доп информация

IMDB: 6.00 (2 153)
Кинопоиск: 7.537 (346)
Бюджет: $19 000 000
Сборы в мире: $26 492 540
Премьера (мир): 6 января 2010

MediaInfo

General
Complete name : D:\Високосный год 2010 BDRip\Високосный год 2010 BDRip [flintfilms].mkv
Format : Matroska
File size : 2.48 GiB
Duration : 1h 40mn
Overall bit rate : 3 534 Kbps
Movie name : Rip by Silver (FLINTFILMS.RU)
Encoded date : UTC 2010-04-24 06:45:37
Writing application : mkvmerge v3.2.0 ('Beginnings') built on Feb 12 2010 16:46:17
Writing library : libebml v0.7.9 + libmatroska v0.8.1
Video
ID : 1
Format : AVC
Format/Info : Advanced Video Codec
Format profile : Baseline@L4.0
Format settings, CABAC : No
Format settings, ReFrames : 1 frame
Muxing mode : Container profile=Unknown@4.0
Codec ID : V_MPEG4/ISO/AVC
Duration : 1h 42mn
Bit rate : 3 272 Kbps
Width : 1 280 pixels
Height : 534 pixels
Display aspect ratio : 2.35:1
Frame rate : 24.390 fps
Resolution : 8 bits
Colorimetry : 4:2:0
Scan type : Progressive
Bits/(Pixel*Frame) : 0.196
Stream size : 2.33 GiB (94%)
Language : English
Audio
ID : 2
Format : AC-3
Format/Info : Audio Coding 3
Codec ID : A_AC3
Duration : 1h 40mn
Bit rate mode : Constant
Bit rate : 192 Kbps
Channel(s) : 2 channels
Channel positions : Front: L R
Sampling rate : 48.0 KHz
Video delay : 10s 50ms
Stream size : 138 MiB (5%)
Title : Одноголосый
Language : Russian

Скриншоты

[Profile]  [PM] 

stalker ubit

Gender: Unknown

Longevity: 10 years

Posts: 18

Reputation: 0 [+] [-]

stalker ubit · Post 20-Jul-2010 14:26 (after 2 months 24 days)

[Quote] 

Varg
Видео кодек добавь
[Profile]  [PM] 
Display posts:    
Reply to topic

Current time is: 26-Nov 00:28

All times are UTC + 2



You cannot post new topics in this forum
You cannot reply to topics in this forum
You cannot edit your posts in this forum
You cannot delete your posts in this forum
You cannot vote in polls in this forum
You cannot attach files in this forum
You cannot download files in this forum