Пираньи / Piranha (Александр Ажа / Alexandre Aja) [2010, США, ужасы, триллер, комедия, DVDRip] DUB + Sub rus + original eng

Reply to topic
 
Author
Message

Satyr ®

Gender: Unknown

Longevity: 11 years

Posts: 15401

Reputation: 55 [+] [-]

Satyr · Post 16-Oct-2010 19:07

[Quote] 

Пираньи / Piranha
Страна: США
Жанр: ужасы, триллер, комедия
Год выпуска: 2010
Продолжительность: 01:24:52
Перевод: Профессиональный (дублированный)
Cубтитры: русские - отдельно
Оригинальная аудиодорожка: английский
Режиссер: Александр Ажа / Alexandre Aja
В ролях: Ричард Дрейфусс, Винг Рэймс, Элизабет Шу, Кристофер Ллойд, Элай Рот, Джерри О`Коннелл, Коуди Лонго, Стивен Р. МакКуин, Джессика Зор, Келли Брук
Описание: 20 тысяч подростков курортного городка у озера Виктория готовятся к празднованию ежегодного праздника начала лета. Но ночное землетрясение высвобождает сотни тысяч доисторических пираний прямо накануне торжества. Очаровательная шериф, ее подчиненные-полицейские и доктор Горден Рэйбэнкс решают сделать все, чтобы веселый праздник молодежи в озере не превратился в кровавое пиршество. Но пираньи уже знают ответ, кто победит: молодость или многовековая жажда крови…
Доп. информация:
IMDB 6.8/10 (7,298 votes)
СЭМПЛ
Качество видео: DVDRip(Исх. DVD9)
Формат видео: AVI
Видео: 720x304 (2.37:1), 25 fps, XviD MPEG-4 ~1544 kbps avg, 0.28 bit/pixel
Аудио: 48 kHz, AC3 Dolby Digital, 3/2 (L,C,R,l,r) + LFE ch, ~448 kbps RUS
Аудио: 48 kHz, AC3 Dolby Digital, 3/2 (L,C,R,l,r) + LFE ch, ~448 kbps ENG
Формат субтитров: softsub (SRT)

AviInfo

File: Piranha.chopper887.avi
Filesize: 1490.54 Mb ( 1 562 941 440 bytes )
Play length: 01:24:52.160 (127304 frames)
Subtitles: rus (SubRip format)
Video: 720x304 (2.37:1), 25 fps, XviD MPEG-4 ~1544 kbps avg, 0.28 bit/pixel
Audio #1: 48 kHz, AC3 Dolby Digital, 3/2 (L,C,R,l,r) + LFE ch, ~448 kbps
Audio #2: 48 kHz, AC3 Dolby Digital, 3/2 (L,C,R,l,r) + LFE ch, ~448 kbps

MediaInfo

General
Complete name : J:\Piranha.chopper887\Piranha.chopper887.avi
Format : AVI
Format/Info : Audio Video Interleave
File size : 1.46 GiB
Duration : 1h 24mn
Overall bit rate : 2 455 Kbps
Writing application : VirtualDubMod 1.5.10.2 (build 2540/release)
Writing library : VirtualDubMod build 2540/release
Video
ID : 0
Format : MPEG-4 Visual
Format profile : AdvancedSimple@L5
Format settings, BVOP : Yes
Format settings, QPel : No
Format settings, GMC : No warppoints
Format settings, Matrix : Custom
Codec ID : XVID
Codec ID/Hint : XviD
Duration : 1h 24mn
Bit rate : 1 545 Kbps
Width : 720 pixels
Height : 304 pixels
Display aspect ratio : 2.35:1
Frame rate : 25.000 fps
Resolution : 24 bits
Colorimetry : 4:2:0
Scan type : Progressive
Bits/(Pixel*Frame) : 0.282
Stream size : 938 MiB (63%)
Writing library : XviD 1.2.1 (UTC 2008-12-04)
Audio #1
ID : 1
Format : AC-3
Format/Info : Audio Coding 3
Codec ID : 2000
Duration : 1h 24mn
Bit rate mode : Constant
Bit rate : 448 Kbps
Channel(s) : 6 channels
Channel positions : Front: L C R, Surround: L R, LFE
Sampling rate : 48.0 KHz
Stream size : 272 MiB (18%)
Alignment : Split accross interleaves
Interleave, duration : 40 ms (1.00 video frame)
Interleave, preload duration : 500 ms
Audio #2
ID : 2
Format : AC-3
Format/Info : Audio Coding 3
Codec ID : 2000
Duration : 1h 24mn
Bit rate mode : Constant
Bit rate : 448 Kbps
Channel(s) : 6 channels
Channel positions : Front: L C R, Surround: L R, LFE
Sampling rate : 48.0 KHz
Stream size : 272 MiB (18%)
Alignment : Split accross interleaves
Interleave, duration : 40 ms (1.00 video frame)
Interleave, preload duration : 500 ms

Скриншоты

[Profile]  [PM] 
Display posts:    
Reply to topic

Current time is: 01-Dec 22:35

All times are UTC + 2



You cannot post new topics in this forum
You cannot reply to topics in this forum
You cannot edit your posts in this forum
You cannot delete your posts in this forum
You cannot vote in polls in this forum
You cannot attach files in this forum
You cannot download files in this forum