Сказки о древней империи / Tales of an Ancient Empire (Альберт Пьюн / Albert Pyun) [2010, США, Аргентина, фэнтези, боевик, приключения, DVDRip-AVC] AVO + original eng

Reply to topic
 
Author
Message

Satyr ®

Gender: Unknown

Longevity: 11 years

Posts: 15401

Reputation: 55 [+] [-]

Satyr · Post 16-Oct-2010 20:22

[Quote] 

Сказки о древней империи / Tales of an Ancient Empire
Страна: США, Аргентина
Жанр: фэнтези, боевик, приключения
Год выпуска: 2010
Продолжительность: 01:25:37
Перевод: Авторский (одноголосый закадровый) acolith
Cубтитры: нет
Оригинальная аудиодорожка: английский - отдельно
Режиссер: Альберт Пьюн / Albert Pyun
В ролях: Вэл Килмер, Кристофер Ламберт, Уитни Эйбл, Кевин Сорбо, Ральф Мёллер , Дженнифер Сибел , Мелисса Ордвэй , Мэттью Уиллиг , Ли Хорсли ,Скотт Полин
Описание: Для того, чтобы спасти своё королевство, принцесса постарается объединить пять самых лучших воинов.
Доп. информация:
IMDB
СЭМПЛ
Качество видео: DVDRip-AVC(Исх.DVD5-Tales.of.an.Ancient.Empire.2010.PAL.Eng.NLSubs)
Формат видео: MKV
Видео: 720x576@1024х576 (16:9), 25.000 fps, х264, 2001 kbps
Аудио: 48 kHz, AC3 Dolby Digital, 3/2 (L,C,R,l,r) + LFE ch, ~384.00 kbps avg RUS
Аудио: 48 kHz, AC3 Dolby Digital, 3/2 (L,C,R,l,r) + LFE ch, ~384.00 kbps avg ENG - отдельно

MediaInfo

General
Complete name : J:\Tales.of.an.Ancient.Empire.chopper887.mkv
Format : Matroska
File size : 1.46 GiB
Duration : 1h 25mn
Overall bit rate : 2 434 Kbps
Movie name : Tales of an Ancient Empire.chopper887
Encoded date : UTC 2010-10-16 13:42:47
Writing application : mkvmerge v3.0.0 ('Hang up your Hang-Ups') built on Dec 12 2009 15:20:35
Writing library : libebml v0.7.9 + libmatroska v0.8.1
Video
ID : 1
Format : AVC
Format/Info : Advanced Video Codec
Format profile : High@L3.1
Format settings, CABAC : Yes
Format settings, ReFrames : 10 frames
Muxing mode : Container profile=Unknown@3.1
Codec ID : V_MPEG4/ISO/AVC
Duration : 1h 25mn
Bit rate : 2 001 Kbps
Nominal bit rate : 2 049 Kbps
Width : 720 pixels
Height : 576 pixels
Display aspect ratio : 16:9
Original display aspect ratio : 5:4
Frame rate : 25.000 fps
Standard : PAL
Resolution : 24 bits
Colorimetry : 4:2:0
Scan type : Progressive
Bits/(Pixel*Frame) : 0.193
Stream size : 1.20 GiB (82%)
Title : Tales of an Ancient Empire.chopper887
Writing library : x264 core 104 r1713 c276662
Encoding settings : cabac=1 / ref=10 / deblock=1:-2:-1 / analyse=0x3:0x133 / me=umh / subme=9 / psy=1 / psy_rd=1.00:0.10 / mixed_ref=1 / me_range=32 / chroma_me=1 / trellis=2 / 8x8dct=1 / cqm=0 / deadzone=21,11 / fast_pskip=0 / chroma_qp_offset=-3 / threads=3 / sliced_threads=0 / nr=0 / decimate=1 / interlaced=0 / constrained_intra=0 / bframes=9 / b_pyramid=2 / b_adapt=2 / b_bias=0 / direct=3 / weightb=1 / open_gop=0 / weightp=2 / keyint=250 / keyint_min=25 / scenecut=40 / intra_refresh=0 / rc_lookahead=80 / rc=2pass / mbtree=1 / bitrate=2049 / ratetol=1.0 / qcomp=0.60 / qpmin=10 / qpmax=51 / qpstep=4 / cplxblur=20.0 / qblur=0.5 / ip_ratio=1.40 / aq=1:1.00
Language : English
Audio
ID : 2
Format : AC-3
Format/Info : Audio Coding 3
Codec ID : A_AC3
Duration : 1h 25mn
Bit rate mode : Constant
Bit rate : 384 Kbps
Channel(s) : 6 channels
Channel positions : Front: L C R, Surround: L R, LFE
Sampling rate : 48.0 KHz
Stream size : 235 MiB (16%)
Title : Авторский одноголосый - acolith

Скриншоты

Скриншоты анаморф

[Profile]  [PM] 
Display posts:    
Reply to topic

Current time is: 28-Nov 21:33

All times are UTC + 2



You cannot post new topics in this forum
You cannot reply to topics in this forum
You cannot edit your posts in this forum
You cannot delete your posts in this forum
You cannot vote in polls in this forum
You cannot attach files in this forum
You cannot download files in this forum