Скайлайн / Skyline (Колин Штраус / Colin Strause, Грег Штраус / Greg Strause) [2010, США, фантастика, триллер, DVDRip] DUB (лицензия) + Original (eng) + Sub (rus)

Reply to topic
 
Author
Message

Satyr ®

Gender: Unknown

Longevity: 11 years

Posts: 15401

Reputation: 55 [+] [-]

Satyr · Post 07-Jan-2011 17:49

[Quote] 

Скайлайн / Skyline
Страна: США
Студия: Black Monday Film Services, Hydraulx, Relativity Media
Жанр: фантастика, триллер
Год выпуска: 2010
Продолжительность: 01:28:44
Перевод: Профессиональный (дублированный)
Субтитры: русский
Оригинальная аудиодорожка: английский
Режиссер: Колин Штраус / Colin Strause, Грег Штраус / Greg Strause
В ролях: Эрик Бальфур, Скотти Томпсон, Бриттани Дэниэл, Кристал Рид, Нил Хопкинс, Дэвид Зайас, Дональд Фэйсон, Робин Гэммел, Таня Ньюболд, Дж. Пол Бомер...
Роли дублировали: Илья Бледный, Ирина Киреева, Татьяна Шитова, Михаил Георгиу, Пётр Иващенко...
Описание: После вечеринки компания друзей просыпается от того, что в окно ударяет яркий свет. Они видят, как людей на улице затягивает в столп света и они поднимаются куда-то вверх. Вскоре после этого на планете начинается зачистка оставшихся людей. Выжившим предстоит бороться за жизнь с инопланетными тварями.

Бюджет: $10 000 000

Тип релиза: DVDRip, источник: DVD9 R5
Контейнер: AVI
Видео: 720x400 (16:9), 25.000 fps, XVID ~1889 kbps avg, 0.262 bit/pixel
Аудио: Русский 48 kHz, AC3, 6 ch, 448.00 kbps Constant
Аудио 2: Английский 48 kHz, AC3, 6 ch, 448.00 kbps Constant (отдельным файлом)

MediaInfo

General
Complete name : Skaylayn.2010.D.DVDRip.avi
Format : AVI
Format/Info : Audio Video Interleave
File size : 1.45 GiB
Duration : 1h 28mn
Overall bit rate : 2 347 Kbps
Writing application : VirtualDubMod 1.5.10.3 (build 2550/release)
Writing library : VirtualDubMod build 2550/release
Video
ID : 0
Format : MPEG-4 Visual
Format profile : Advanced Simple@L5
Format settings, BVOP : Yes
Format settings, QPel : No
Format settings, GMC : No warppoints
Format settings, Matrix : Custom
Codec ID : XVID
Codec ID/Hint : XviD
Duration : 1h 28mn
Bit rate : 1 889 Kbps
Width : 720 pixels
Height : 400 pixels
Display aspect ratio : 16:9
Frame rate : 25.000 fps
Color space : YUV
Chroma subsampling : 4:2:0
Bit depth : 8 bits
Scan type : Progressive
Bits/(Pixel*Frame) : 0.262
Stream size : 1.17 GiB (80%)
Writing library : XviD 1.2.1 (UTC 2008-12-04)
Audio
ID : 1
Format : AC-3
Format/Info : Audio Coding 3
Mode extension : CM (complete main)
Codec ID : 2000
Duration : 1h 28mn
Bit rate mode : Constant
Bit rate : 448 Kbps
Channel(s) : 6 channels
Channel positions : Front: L C R, Side: L R, LFE
Sampling rate : 48.0 KHz
Bit depth : 16 bits
Stream size : 284 MiB (19%)
Alignment : Split accross interleaves
Interleave, duration : 40 ms (1.00 video frame)
Interleave, preload duration : 500 ms

Скриншот с названием

Скриншоты

[Profile]  [PM] 
Display posts:    
Reply to topic

Current time is: 06-Dec 04:01

All times are UTC + 2



You cannot post new topics in this forum
You cannot reply to topics in this forum
You cannot edit your posts in this forum
You cannot delete your posts in this forum
You cannot vote in polls in this forum
You cannot attach files in this forum
You cannot download files in this forum