Телохранитель / London Boulevard (Уильям Монахэн / William Monahan) [2010, США, Великобритания, мелодрама, криминал, DVDRip] DUB (R5)

Reply to topic
 
Author
Message

Satyr ®

Gender: Unknown

Longevity: 11 years

Posts: 15401

Reputation: 55 [+] [-]

Satyr · Post 09-Mar-2011 02:29

[Quote] 

Телохранитель / London Boulevard
«You don't want Mitch to be a gangster.»
Страна: США, Великобритания
Студия: GK Films
Жанр: мелодрама, криминал
Год выпуска: 2010
Продолжительность: 01:39:20
Перевод: Профессиональный (дублированный)
Субтитры: нет
Оригинальная аудиодорожка: нет
Режиссер: Уильям Монахэн / William Monahan
В ролях: Колин Фаррелл, Кира Найтли, Рэй Уинстоун, Стивен Грэм, Анна Фрил, Дэвид Тьюлис, Джейми Кэмпбелл Бауэр, Офелия Ловибонд, Бен Чаплин, Эдди Марсан...
Роли дублировали: Илья Бледный, Наталья Фищук, Александр Новиков, Диомид Виноградов, Рамиля Искандер...
Описание: Пытаясь покончить с криминальным прошлым Митч, знакомится с кинозвездой Шарлоттой, которая прячется в своем доме от толпы репортеров и фотографов. Красота и ранимость актрисы покоряют Митча, и он становится ее телохранителем, защищая Шарлотту от агрессивных папарацци, преследователей и прочих негодяев. Но преступный мир так легко его не отпустит…


Качество видео: DVDRip, источник DVD9 R5
Формат видео: AVI
Видео: 720x400 (16:9), 25.000 fps, XVID ~1707 kbps avg, 0.237 bit/pixel
Аудио: 48 kHz, AC3, 6 ch, 384.00 kbps Constant

MediaInfo

Общее
Полное имя : Telohranitel.2010.D.DVDRip.avi
Формат : AVI
Формат/Информация : Audio Video Interleave
Размер файла : 1,46 Гбайт
Продолжительность : 1 ч. 39 м.
Общий поток : 2101 Кбит/сек
Программа кодирования : VirtualDubMod 1.5.10.3 (build 2550/release)
Библиотека кодирования : VirtualDubMod build 2550/release
Видео
Идентификатор : 0
Формат : MPEG-4 Visual
Профиль формата : Advanced Simple@L5
Параметр BVOP формата : 1
Параметр QPel формата : Нет
Параметр GMC формата : Без точки перехода
Параметр матрицы формата : Выборочная
Идентификатор кодека : XVID
Идентификатор кодека/Подсказка : XviD
Продолжительность : 1 ч. 39 м.
Битрейт : 1707 Кбит/сек
Ширина : 720 пикс.
Высота : 400 пикс.
Соотношение сторон : 16:9
Частота кадров : 25,000 кадр/сек
Цветовое пространство : YUV
Подвыборка цветности : 4:2:0
Битовая глубина : 8 бит
Тип развёртки : Прогрессивная
Метод сжатия : С потерями
Бит/(Пиксели*Кадры) : 0.237
Размер потока : 1,18 Гбайт (81%)
Библиотека кодирования : XviD 1.2.1 (UTC 2008-12-04)
Аудио
Идентификатор : 1
Формат : AC-3
Формат/Информация : Audio Coding 3
Расширение режима : CM (complete main)
Идентификатор кодека : 2000
Продолжительность : 1 ч. 39 м.
Вид битрейта : Постоянный
Битрейт : 384 Кбит/сек
Канал(ы) : 6 канала(ов)
Расположение каналов : Front: L C R, Side: L R, LFE
Частота : 48,0 КГц
Битовая глубина : 16 бит
Метод сжатия : С потерями
Размер потока : 273 Мбайт (18%)
Выравнивание : Разделение по промежуткам
Продолжительность промежутка : 40 мс. (1,00 видеокадр)
Время предзагрузки промежутка : 500 ms

Скриншот с названием

Скриншоты

[Profile]  [PM] 
Display posts:    
Reply to topic

Current time is: 29-Nov 12:07

All times are UTC + 2



You cannot post new topics in this forum
You cannot reply to topics in this forum
You cannot edit your posts in this forum
You cannot delete your posts in this forum
You cannot vote in polls in this forum
You cannot attach files in this forum
You cannot download files in this forum