Астрал / Insidious (Джеймс Ван / James Wan) [2010, США, ужасы, триллер, DVDRip] DUB (R5)

Reply to topic
 
Author
Message

Satyr ®

Gender: Unknown

Longevity: 11 years

Posts: 15401

Reputation: 55 [+] [-]

Satyr · Post 25-Apr-2011 19:48

[Quote] 

Астрал / Insidious«Это не дом населён призраками...»
Год выпуска: 2010
Страна: США
Киностудия: Automatik Entertainment, Blumhouse Productions
Жанр: ужасы, триллер
Продолжительность: 01:38:11
Перевод: Профессиональный (дублированный) лицензия
Cубтитры: нет
Оригинальная аудиодорожка: нет
Режиссер: Джеймс Ван / James Wan
В ролях: Патрик Уилсон, Роуз Бирн, Ти Кигэн Симпкинс, Эндрю Эстор, Лин Шэй, Ли Уоннелл, Энгус Сэмпсон, Барбара Херши, Корбетт Так, Хезер Токуини...
Роли дублировали: Евгений Пашин, Екатерина Брайковская, Татьяна Антонова, Ольга Радчук, Андрей Фединчик
Описание: Джош и Ринэй переезжают со своими детьми в новый дом, но не успевают толком распаковать вещи, как начинаются странные события. Необъяснимо перемещаются предметы, в детской звучат странные звуки… Но в настоящий ужас приходят родители, когда их десятилетний сын Далтон впадает в кому. Все усилия врачей в больнице помочь мальчику безуспешны.
Несколько месяцев спустя его возвращают домой, где за несчастным ребенком ухаживают мать и сиделка. Но загадочные явления в доме продолжаются. Отчаявшиеся родители готовы обратиться за помощью к кому угодно и вскоре выясняется, что Далтон в бессознательном состоянии связан с паранормальным миром…

Бюджет: $1 000 000

Качество видео: DVDRip, источник: DVD5 R5
Формат видео: AVI
Видео: 720x304 (2.35:1), 25.000 fps, XVID ~1733 kbps avg, 0.317 bit/pixel
Аудио: 48 kHz, AC3, 6 ch, 384.00 kbps Constant

MediaInfo

Общее
Полное имя : Astral.2010.D.DVDRip.avi
Формат : AVI
Формат/Информация : Audio Video Interleave
Размер файла : 1,46 Гбайт
Продолжительность : 1 ч. 38 м.
Общий поток : 2126 Кбит/сек
Программа кодирования : VirtualDubMod 1.5.10.3 (build 2550/release)
Библиотека кодирования : VirtualDubMod build 2550/release
Видео
Идентификатор : 0
Формат : MPEG-4 Visual
Профиль формата : Advanced Simple@L5
Параметр BVOP формата : 1
Параметр QPel формата : Нет
Параметр GMC формата : Без точки перехода
Параметр матрицы формата : Выборочная
Идентификатор кодека : XVID
Идентификатор кодека/Подсказка : XviD
Продолжительность : 1 ч. 38 м.
Битрейт : 1733 Кбит/сек
Ширина : 720 пикс.
Высота : 304 пикс.
Соотношение сторон : 2,35:1
Частота кадров : 25,000 кадр/сек
Цветовое пространство : YUV
Подвыборка цветности : 4:2:0
Битовая глубина : 8 бит
Тип развёртки : Прогрессивная
Метод сжатия : С потерями
Бит/(Пиксели*Кадры) : 0.317
Размер потока : 1,19 Гбайт (81%)
Библиотека кодирования : XviD 1.2.1 (UTC 2008-12-04)
Аудио
Идентификатор : 1
Формат : AC-3
Формат/Информация : Audio Coding 3
Расширение режима : CM (complete main)
Идентификатор кодека : 2000
Продолжительность : 1 ч. 38 м.
Вид битрейта : Постоянный
Битрейт : 384 Кбит/сек
Канал(ы) : 6 канала(ов)
Расположение каналов : Front: L C R, Side: L R, LFE
Частота : 48,0 КГц
Битовая глубина : 16 бит
Метод сжатия : С потерями
Размер потока : 270 Мбайт (18%)
Выравнивание : Разделение по промежуткам
Продолжительность промежутка : 40 мс. (1,00 видеокадр)
Время предзагрузки промежутка : 500 ms

Скриншот с названием

Скриншоты

Резервные скриншоты

[Profile]  [PM] 
Display posts:    
Reply to topic

Current time is: 02-Dec 08:15

All times are UTC + 2



You cannot post new topics in this forum
You cannot reply to topics in this forum
You cannot edit your posts in this forum
You cannot delete your posts in this forum
You cannot vote in polls in this forum
You cannot attach files in this forum
You cannot download files in this forum