Паранормальное явление 2 / Paranormal Activity 2 (Тод 'Кип' Уильямс / Tod 'Kip' Williams) [2010, США, ужасы, HDRip] [Unrated Сut] DUB

Reply to topic
 
Author
Message

Satyr ®

Gender: Unknown

Longevity: 11 years

Posts: 15401

Reputation: 55 [+] [-]

Satyr · Post 01-May-2011 00:19

[Quote] 

--Паранормальное явление 2 / Paranormal Activity 2 [Unrated Сut]
--Страна: США
Жанр: ужасы
Год выпуска: 2010
Продолжительность: 01:38:03--Перевод: дублированный [лицензия]
Cубтитры: русские, вшитые [на UNRATED моменты]
Режиссер: Тод 'Кип' Уильямс / Tod 'Kip' Williams
В ролях: Райан Боланд, Кэти Фезерстон, Вивис Кортес, Спрэг Грэйден, Молли Эфраим, Мика Слот, Сет Гинсберг, Дэвид Биренд, Уильям Хуан Прието, Джексон Ксения Прието--Описание: После пережитых, как им казалось, серии «взломов» своего жилища, супруги решили установить камеры слежения по всему дому. И только теперь они понимают, что события, которые разворачиваются перед ними, куда более зловещие…--imdb | kinopoisk | Семпл--Качество видео: HDRip [Paranormal.Activity.2.2010.720p.BluRay.x264-EbP]
Формат видео: AVI
Видео: 720x400 (1.80:1), 23.976 fps, XviD build 50 ~1536 kbps avg, 0.22 bit/pixel
Аудио: 48 kHz, AC3 Dolby Digital, 3/2 (L,C,R,l,r) + LFE ch, ~448.00 kbps avg

MediaInfo

General
Complete name : Paranormal.Activity.2.[UNRATED].D.2010.HDRip.avi
Format : AVI
Format/Info : Audio Video Interleave
File size : 1.37 GiB
Duration : 1h 38mn
Overall bit rate : 1 994 Kbps
Writing application : VirtualDubMod 1.5.10.2 (build 2540/release)
Writing library : VirtualDubMod build 2540/release
Video
ID : 0
Format : MPEG-4 Visual
Format profile : Advanced Simple@L5
Format settings, BVOP : Yes
Format settings, QPel : No
Format settings, GMC : No warppoints
Format settings, Matrix : Default (MPEG)
Codec ID : XVID
Codec ID/Hint : XviD
Duration : 1h 38mn
Bit rate : 1 537 Kbps
Width : 720 pixels
Height : 400 pixels
Display aspect ratio : 16:9
Frame rate : 23.976 fps
Resolution : 8 bits
Colorimetry : 4:2:0
Scan type : Progressive
Bits/(Pixel*Frame) : 0.223
Stream size : 1.05 GiB (77%)
Writing library : XviD 1.2.1 (UTC 2008-12-04)
Audio
ID : 1
Format : AC-3
Format/Info : Audio Coding 3
Codec ID : 2000
Duration : 1h 38mn
Bit rate mode : Constant
Bit rate : 448 Kbps
Channel(s) : 6 channels
Channel positions : Front: L C R, Side: L R, LFE
Sampling rate : 48.0 KHz
Stream size : 314 MiB (22%)
Alignment : Split accross interleaves
Interleave, duration : 42 ms (1.00 video frame)
Interleave, preload duration : 500 ms

Скриншот c названием фильма

Скриншоты


[Profile]  [PM] 
Display posts:    
Reply to topic

Current time is: 06-Dec 03:44

All times are UTC + 2



You cannot post new topics in this forum
You cannot reply to topics in this forum
You cannot edit your posts in this forum
You cannot delete your posts in this forum
You cannot vote in polls in this forum
You cannot attach files in this forum
You cannot download files in this forum