Чёрный лебедь / Black Swan (Даррен Аронофски / Darren Aronofsky) [2010, США, Триллер, Драма, HDRip] VO

Reply to topic
 
Author
Message

Wolf ®

Gender: Unknown

Longevity: 11 years

Posts: 2860

Reputation: 0 [+] [-]

Wolf · Post 09-May-2011 19:10

[Quote] 

-Чёрный лебедь / Black Swan--- Страна: США
Жанр: Триллер, Драма
Год выпуска: 2010
Продолжительность: 01:48:07--Перевод: Любительский (одноголосый закадровый)
Cубтитры: Нет
Режиссер: Даррен Аронофски / Darren Aronofsky--В ролях: Натали Портман, Мила Кунис, Венсан Кассель, Барбара Херши, Вайнона Райдер, Бенжамен Мильпье, Ксения Соло, Кристина Анапау, Джанет Монтгомери, Себастиан Стэн и др.--Описание: Сюжет картины строится вокруг примы балетного театра, у которой неожиданно появляется опасная конкурентка, способная отобрать у главной героини все партии. Соперничество усиливается по мере приближения ответственного выступления, которое должно решить все.--Качество видео: HDRip
Формат видео: AVI
Видео: Xvid, 720x304, 23.98fps, 1476Kbps
Аудио: Dolby AC3, 48000Hz, 6ch, 448kbps--Дополнительная информация:
-Приятного вам просмотра!
-

MediaInfo

Format : AVI
Format/Info : Audio Video Interleave
File size : 1.46 GiB
Duration : 1h 48mn
Overall bit rate : 1 933 Kbps
Writing application : VirtualDubMod 1.5.10.3 | www.virtualdub-fr.org || (build 2550/release)
Writing library : VirtualDubMod build 2550/release
Video
ID : 0
Format : MPEG-4 Visual
Format profile : Advanced Simple@L5
Format settings, BVOP : 2
Format settings, QPel : No
Format settings, GMC : No warppoints
Format settings, Matrix : Custom
Codec ID : XVID
Codec ID/Hint : XviD
Duration : 1h 48mn
Bit rate : 1 476 Kbps
Width : 720 pixels
Height : 304 pixels
Display aspect ratio : 2.35:1
Frame rate : 23.976 fps
Color space : YUV
Chroma subsampling : 4:2:0
Bit depth : 8 bits
Scan type : Progressive
Compression mode : Lossy
Bits/(Pixel*Frame) : 0.281
Stream size : 1.11 GiB (76%)
Writing library : XviD 1.2.1 (UTC 2008-12-04)
Audio
ID : 1
Format : AC-3
Format/Info : Audio Coding 3
Mode extension : CM (complete main)
Codec ID : 2000
Duration : 1h 48mn
Bit rate mode : Constant
Bit rate : 448 Kbps
Channel(s) : 6 channels
Channel positions : Front: L C R, Side: L R, LFE
Sampling rate : 48.0 KHz
Bit depth : 16 bits
Compression mode : Lossy
Stream size : 346 MiB (23%)
Alignment : Split accross interleaves
Interleave, duration : 42 ms (1.00 video frame)
Interleave, preload duration : 500 ms

Скриншот c названием фильма

Скриншоты

[Profile]  [PM] 
Display posts:    
Reply to topic

Current time is: 03-Dec 10:06

All times are UTC + 2



You cannot post new topics in this forum
You cannot reply to topics in this forum
You cannot edit your posts in this forum
You cannot delete your posts in this forum
You cannot vote in polls in this forum
You cannot attach files in this forum
You cannot download files in this forum