Эра драконов / Age of the Dragons (Райан Литтл / Rain Littl) [2011, США, Фантастика, фэнтези, боевик, триллер, DVDRip] MVO [Лицензия]

Reply to topic
 
Author
Message

Satyr ®

Gender: Unknown

Longevity: 11 years

Posts: 15401

Reputation: 55 [+] [-]

Satyr · Post 30-May-2011 02:21

[Quote] 

Эра драконов / Age of the Dragons
-Страна: США
Жанр: фантастика, фэнтези, боевик, триллер
Год выпуска: 2011
Продолжительность: 01:28:13
Перевод: Профессиональный (многоголосый закадровый) [Лицензия]
Cубтитры: нет-Режиссер: Райан Литтл / Rain Littl-В ролях: Дэнни Гловер, Винни Джонс, Кори Севьер, София Пернас, Ларри Бэгби, Джон Кепа Крус, Дэвид Морган-Описание: Герои фильма живут в средневековом мире, где существуют драконы. Капитан Ахав (Денни Гловер) одержим охотой за Белым Драконом, который убил его семью, а самого Ахава обезобразил шрамами. В фильме есть харизматичный гарпунер Измаил, а вместе с Ахавом охотится на Белого Дракона его приемная дочь Рейчел. Ей придется выбирать идти до конца за одержимым убийством заклятого врага отцом или начать новую жизнь с Измаилом.- -Качество видео: DVDRip [DVD9 R5]
Формат видео: AVI
Видео: 720x304 (2.35:1), 25.000 fps, XviD ~1819 kbps avg, 0.333 bit/pixel
Аудио: 48 kHz, AC3 Dolby Digital, 3/2 (L,C,R,l,r) + LFE ch, ~384.00 kbps avg
Скачать: Сэмпл-

MediaInfo

General
Complete name : Jera.drakonov.2011.XviD.DVDRip.avi
Format : AVI
Format/Info : Audio Video Interleave
File size : 1.36 GiB
Duration : 1h 28mn
Overall bit rate : 2 213 Kbps
Movie name : Jera.drakonov.2011.XviD.DVDRip.ELEKTRO.Am
Director : ELEKTRO-Am
Writing application : VirtualDubMod 1.5.10.2 (build 2540/release)
Video
ID : 0
Format : MPEG-4 Visual
Format profile : Advanced Simple@L5
Format settings, BVOP : Yes
Format settings, QPel : No
Format settings, GMC : No warppoints
Format settings, Matrix : Custom
Codec ID : XVID
Codec ID/Hint : XviD
Duration : 1h 28mn
Bit rate : 1 820 Kbps
Width : 720 pixels
Height : 304 pixels
Display aspect ratio : 2.35:1
Frame rate : 25.000 fps
Color space : YUV
Chroma subsampling : 4:2:0
Bit depth : 8 bits
Scan type : Progressive
Compression mode : Lossy
Bits/(Pixel*Frame) : 0.333
Stream size : 1.12 GiB (82%)
Writing library : XviD 1.2.0.dev47 (UTC 2006-11-01)
Audio
ID : 1
Format : AC-3
Format/Info : Audio Coding 3
Mode extension : CM (complete main)
Codec ID : 2000
Duration : 1h 28mn
Bit rate mode : Constant
Bit rate : 384 Kbps
Channel(s) : 6 channels
Channel positions : Front: L C R, Side: L R, LFE
Sampling rate : 48.0 KHz
Bit depth : 16 bits
Compression mode : Lossy
Stream size : 242 MiB (17%)
Alignment : Split accross interleaves
Interleave, duration : 40 ms (1.00 video frame)
Interleave, preload duration : 500 ms

Скриншот c названием фильма

Скриншоты

[Profile]  [PM] 
Display posts:    
Reply to topic

Current time is: 06-Dec 04:06

All times are UTC + 2



You cannot post new topics in this forum
You cannot reply to topics in this forum
You cannot edit your posts in this forum
You cannot delete your posts in this forum
You cannot vote in polls in this forum
You cannot attach files in this forum
You cannot download files in this forum