Мальчик, который рассказывал об оборотне / The Boy Who Cried Werewolf (Eric Bross / Эрик Бросс) [2010, США, Семейный, Комедия, Ужасы, HDTVRip] VO (Вячеслав Прошин) + original eng

Reply to topic
 
Author
Message

Satyr ®

Gender: Unknown

Longevity: 11 years

Posts: 15401

Reputation: 55 [+] [-]

Satyr · Post 04-Jul-2011 00:04

[Quote] 

Мальчик, который рассказывал об оборотне / The Boy Who Cried Werewolf
Страна: США
Жанр: Семейный, Комедия, Ужасы
Год выпуска: 2010
Продолжительность: 01:24:00
Перевод: Любительский (одноголосый закадровый)
Cубтитры: нет
Оригинальная аудиодорожка: английский
Режиссер: Eric Bross / Эрик Бросс
В ролях: Виктория Джастис, Чейз Эллисон, Брук Д'Орсей, Мэтт Винстон, Стивен Грэйм, Брук Шилдс и др.
Описание: Обычная калифорнийская семья неожиданно получает в наследство старинный румынский замок. Это особенно радостная новость для сына, увлекающегося мистическими существами. И он не будет разочарован!-Релиз: Кинопортал Близзард
Перевод: Дмитрий Александрович aka kitmur
Озвучание: Вячеслав Прошин
Монтаж и сведение звука: alex81-Сэмпл: http://multi-up.com/512885
Качество видео: HDTVRip
Формат видео: AVI
Видео: Xvid 720x400 23.976fps 1940Kbps
Аудио 1: Dolby AC3 48000Hz 6ch 448kbps (русский)
Аудио 2: Dolby AC3 48000Hz 6ch 384kbps (английский)

MediaInfo

General
Complete name : I:\Мальчик, который рассказывал об оборотне\The.Boy.Who.Cried.Werewolf.rus.eng.avi
Format : AVI
Format/Info : Audio Video Interleave
File size : 1.63 GiB
Duration : 1h 24mn
Overall bit rate : 2 786 Kbps
Writing application : VirtualDubModRus 1.5.10.2 (build 2540/release)
Writing library : VirtualDubMod build 2540/release
Video
ID : 0
Format : MPEG-4 Visual
Format profile : Advanced Simple@L5
Format settings, BVOP : 1
Format settings, QPel : No
Format settings, GMC : No warppoints
Format settings, Matrix : Default (H.263)
Muxing mode : Packed bitstream
Codec ID : XVID
Codec ID/Hint : XviD
Duration : 1h 24mn
Bit rate : 1 940 Kbps
Width : 720 pixels
Height : 400 pixels
Display aspect ratio : 16:9
Frame rate : 23.976 fps
Color space : YUV
Chroma subsampling : 4:2:0
Bit depth : 8 bits
Scan type : Progressive
Compression mode : Lossy
Bits/(Pixel*Frame) : 0.281
Stream size : 1.14 GiB (70%)
Writing library : XviD 1.2.1 (UTC 2008-12-04)
Audio #1
ID : 1
Format : AC-3
Format/Info : Audio Coding 3
Mode extension : CM (complete main)
Codec ID : 2000
Duration : 1h 24mn
Bit rate mode : Constant
Bit rate : 448 Kbps
Channel(s) : 6 channels
Channel positions : Front: L C R, Side: L R, LFE
Sampling rate : 48.0 KHz
Bit depth : 16 bits
Compression mode : Lossy
Stream size : 269 MiB (16%)
Alignment : Split accross interleaves
Interleave, duration : 42 ms (1.00 video frame)
Interleave, preload duration : 500 ms
Audio #2
ID : 2
Format : AC-3
Format/Info : Audio Coding 3
Mode extension : CM (complete main)
Codec ID : 2000
Duration : 1h 24mn
Bit rate mode : Constant
Bit rate : 384 Kbps
Channel(s) : 6 channels
Channel positions : Front: L C R, Side: L R, LFE
Sampling rate : 48.0 KHz
Bit depth : 16 bits
Compression mode : Lossy
Stream size : 231 MiB (14%)
Alignment : Split accross interleaves
Interleave, duration : 42 ms (1.00 video frame)
Interleave, preload duration : 500 ms

Скриншот c названием фильма

Скриншоты

[Profile]  [PM] 
Display posts:    
Reply to topic

Current time is: 03-Dec 09:05

All times are UTC + 2



You cannot post new topics in this forum
You cannot reply to topics in this forum
You cannot edit your posts in this forum
You cannot delete your posts in this forum
You cannot vote in polls in this forum
You cannot attach files in this forum
You cannot download files in this forum