Властелин измерений / Grande ourse - La cle des possibles (Патрис Сов / Patrice Sauvé) [2009, Канада, фэнтези, приключения, DVDRip-AVC] MVO + Sub rus + original fre

Reply to topic
 
Author
Message

Satyr ®

Gender: Unknown

Longevity: 11 years

Posts: 15401

Reputation: 55 [+] [-]

Satyr · Post 11-Sep-2011 02:03

[Quote] 

Властелин измерений / Grande ourse - La cle des possibles
Страна: Канада
Жанр: фэнтези, приключения
Год выпуска: 2009
Продолжительность: 01:39:44
Перевод: Профессиональный (многоголосый закадровый)
Cубтитры: русские
Оригинальная аудиодорожка: французский
Режиссер: Патрис Сов / Patrice Sauvй
В ролях: Марк Мессье, Норманд Дано, Мод Герин, Габриель Лазюр, Фридерик Жилль, Моник Меркюр, Вассили Шнайдер, Эвелин Брошу, Энни Дорвал, Френсис Дюшарм, Мишель Перрон, Пьер ЛеБланк, Виталий Макаров, Фанни Коурнойер, Милен Коурнойер
Описание: Пытаясь помочь другу, Луис Бернард отправляется в необыкновенное путешествие. С помощью магических артефактов, он попадает в параллельный мир, из которого он может изменить события в нашем мире…
Доп. информация:
IMDB 5.9/10 (124 votes)
СЭМПЛ
Качество видео: DVDRip-AVC (Исх. DVD9)
Формат видео: MKV
Видео: 720x432@1024x432 (2.35:1), 25.000 fps, AVC, ~1512 kbps, 0.194 bits/pixel
Аудио: 48.0 KHz, AC3, 6 ch, 384 kbps RUS
Аудио: 48.0 KHz, AC3, 2 ch, 192 kbps FRE
Формат субтитров: softsub (SRT)

MediaInfo


General
Unique ID : 227500455914457758460354076350167309581 (0xAB26FE7974363C8881F724FAF186DD0D)
Complete name : L:\Vlastelin izmereniy.chopper887.mkv
Format : Matroska
File size : 1.45 GiB
Duration : 1h 39mn
Overall bit rate : 2 086 Kbps
Movie name : Vlastelin izmereniy.chopper887
Encoded date : UTC 2011-06-24 04:01:51
Writing application : mkvmerge v4.8.0 ('I Got The...') built on May 24 2011 03:12:58
Writing library : libebml v1.2.0 + libmatroska v1.1.0
Video
ID : 1
Format : AVC
Format/Info : Advanced Video Codec
Format profile : High@L3.1
Format settings, CABAC : Yes
Format settings, ReFrames : 10 frames
Codec ID : V_MPEG4/ISO/AVC
Duration : 1h 39mn
Bit rate : 1 512 Kbps
Width : 720 pixels
Height : 432 pixels
Display aspect ratio : 2.35:1
Original display aspect ratio : 1.667
Frame rate : 25.000 fps
Color space : YUV
Chroma subsampling : 4:2:0
Bit depth : 8 bits
Scan type : Progressive
Bits/(Pixel*Frame) : 0.194
Stream size : 1.02 GiB (70%)
Title : Vlastelin izmereniy.chopper887
Writing library : x264 core 115 r1995 c1e60b9
Encoding settings : cabac=1 / ref=10 / deblock=1:-2:-1 / analyse=0x3:0x133 / me=umh / subme=10 / psy=1 / psy_rd=1.00:0.10 / mixed_ref=1 / me_range=32 / chroma_me=1 / trellis=2 / 8x8dct=1 / cqm=0 / deadzone=21,11 / fast_pskip=0 / chroma_qp_offset=-3 / threads=3 / sliced_threads=0 / nr=0 / decimate=1 / interlaced=0 / bluray_compat=0 / constrained_intra=0 / bframes=8 / b_pyramid=2 / b_adapt=2 / b_bias=0 / direct=3 / weightb=1 / open_gop=0 / weightp=2 / keyint=250 / keyint_min=25 / scenecut=40 / intra_refresh=0 / rc_lookahead=80 / rc=2pass / mbtree=1 / bitrate=1512 / ratetol=1.0 / qcomp=0.70 / qpmin=0 / qpmax=69 / qpstep=4 / cplxblur=20.0 / qblur=0.5 / ip_ratio=1.40 / aq=1:1.00
Language : English
Audio #1
ID : 2
Format : AC-3
Format/Info : Audio Coding 3
Mode extension : CM (complete main)
Codec ID : A_AC3
Duration : 1h 39mn
Bit rate mode : Constant
Bit rate : 384 Kbps
Channel(s) : 6 channels
Channel positions : Front: L C R, Side: L R, LFE
Sampling rate : 48.0 KHz
Bit depth : 16 bits
Compression mode : Lossy
Stream size : 274 MiB (18%)
Title : Многоголосый
Audio #2
ID : 3
Format : AC-3
Format/Info : Audio Coding 3
Mode extension : CM (complete main)
Codec ID : A_AC3
Duration : 1h 39mn
Bit rate mode : Constant
Bit rate : 192 Kbps
Channel(s) : 2 channels
Channel positions : Front: L R
Sampling rate : 48.0 KHz
Bit depth : 16 bits
Compression mode : Lossy
Stream size : 137 MiB (9%)
Title : Французский
Text
ID : 4
Format : UTF-8
Codec ID : S_TEXT/UTF8
Codec ID/Info : UTF-8 Plain Text
Title : Русские

Скриншоты


[Profile]  [PM] 
Display posts:    
Reply to topic

Current time is: 02-Dec 20:12

All times are UTC + 2



You cannot post new topics in this forum
You cannot reply to topics in this forum
You cannot edit your posts in this forum
You cannot delete your posts in this forum
You cannot vote in polls in this forum
You cannot attach files in this forum
You cannot download files in this forum