Похороненная 2 / ChromeSkull: Laid to Rest 2 (Роберт Холл / Robert Holl) [2011, США, ужасы, триллер, DVDRip] VO + Original Eng

Reply to topic
 
Author
Message

Oton ®

Gender: Unknown

Longevity: 9 years 2 months

Posts: 70

Reputation: 5 [+] [-]

Oton · Post 24-Oct-2011 01:46

[Quote] 

Похороненная 2 / ChromeSkull: Laid to Rest 2 Страна: США
Жанр: ужасы, триллер
Год выпуска: 2011
Продолжительность: 01:33:20
Перевод: Одноголосый закадровый
Cубтитры: нет
Оригинальная аудиодорожка: английский
Режиссер: Роберт Холл / Robert Holl
В ролях: Ник Принсип, Захари Элден Бэйкер, Крис Карнел, Эйми-Линн Чедвик, Стэйси Чборски, Брианна Дэвис, Томас Деккер, Энтони Фицджералд

Описание: Действие сиквела происходит спустя три месяца после событий первого фильма. Томми, который старается оправиться от предыдущего столкновения с убийцей в маске, оказывается похищен другим маньяком, таинственным образом связанным с Хромированным Черепом. Тем временем сам убийца выбрал новый объект для охоты — девушку по имени Джесс. Поисками пропавших занимается детектив Кинг, который должен поторопиться, чтобы спасти ребят и остановить психов.

Качество видео: DVDRip [Chrome Skull 2 (2011) DVDRip Ac3 Xvid - TCM]

Формат видео: AVI
Видео: 704x400 (1.76:1), 23.976 fps, XviD build 64 ~1770 kbps avg, 0.26 bit/pixel
Аудио: 48 kHz, MPEG Layer 3, 2 ch, ~128.00 kbps avg
Аудио 2: 48 kHz, AC3 Dolby Digital, 3/2 (L,C,R,l,r) + LFE ch, ~320 kbps

MediaInfo

Общее
Полное имя : C:\Users\igor\Desktop\pohoronennaja.2\Chromeskull.Laid.to.Rest.2.2011.DVDRip.avi
Формат : AVI
Формат/Информация : Audio Video Interleave
Размер файла : 1,46 Гбайт
Продолжительность : 1 ч. 33 м.
Общий поток : 2233 Кбит/сек
Название фильма : c.s.2.tcm
Кодирование произвёл : TCM
Программа кодирования : VirtualDubMod 1.5.10.3 | www.virtualdub-fr.org || (build 2550/release)
Библиотека кодирования : VirtualDubMod build 2550/release
Правообладатель : TCM
Видео
Идентификатор : 0
Формат : MPEG-4 Visual
Профиль формата : Advanced Simple@L5
Параметр BVOP формата : Нет
Параметр QPel формата : Нет
Параметр GMC формата : Без точки перехода
Параметр матрицы формата : Выборочная
Идентификатор кодека : XVID
Идентификатор кодека/Подсказка : XviD
Продолжительность : 1 ч. 33 м.
Битрейт : 1771 Кбит/сек
Ширина : 704 пикс.
Высота : 400 пикс.
Соотношение сторон : 16:9
Частота кадров : 23,976 кадр/сек
Цветовое пространство : YUV
Подвыборка цветности : 4:2:0
Битовая глубина : 8 бит
Тип развёртки : Прогрессивная
Метод сжатия : С потерями
Бит/(Пиксели*Кадры) : 0.262
Размер потока : 1,15 Гбайт (79%)
Библиотека кодирования : XviD 64
Аудио #1
Идентификатор : 1
Формат : MPEG Audio
Версия формата : Version 1
Профиль формата : Layer 3
Режим : Joint stereo
Расширение режима : MS Stereo
Идентификатор кодека : 55
Идентификатор кодека/Подсказка : MP3
Продолжительность : 1 ч. 33 м.
Вид битрейта : Постоянный
Битрейт : 128 Кбит/сек
Каналы : 2 канала
Частота : 48,0 КГц
Метод сжатия : С потерями
Размер потока : 85,5 Мбайт (6%)
Выравнивание : Соединение по промежуткам
Продолжительность промежутка : 42 мс. (1,00 видеокадр)
Время предзагрузки промежутка : 504 ms
Библиотека кодирования : LAME3.98.4
Язык : un / English
Аудио #2
Идентификатор : 2
Формат : AC-3
Формат/Информация : Audio Coding 3
Расширение режима : CM (complete main)
Идентификатор кодека : 2000
Продолжительность : 1 ч. 33 м.
Вид битрейта : Постоянный
Битрейт : 320 Кбит/сек
Каналы : 6 каналов
Расположение каналов : Front: L C R, Side: L R, LFE
Частота : 48,0 КГц
Битовая глубина : 16 бит
Метод сжатия : С потерями
Размер потока : 214 Мбайт (14%)
Выравнивание : Разделение по промежуткам
Продолжительность промежутка : 42 мс. (1,00 видеокадр)
Время предзагрузки промежутка : 500 ms

Скриншот c названием фильма

Скриншоты


[Profile]  [PM] 
Display posts:    
Reply to topic

Current time is: 05-Dec 09:36

All times are UTC + 2



You cannot post new topics in this forum
You cannot reply to topics in this forum
You cannot edit your posts in this forum
You cannot delete your posts in this forum
You cannot vote in polls in this forum
You cannot attach files in this forum
You cannot download files in this forum