Опасный квартал / The Son of No One (Дито Монтиель / Dito Montiel) [2011, США, триллер, драма, криминал, BDRip] DUB [Лицензия]

Reply to topic
 
Author
Message

Varggoth ®

Gender: Unknown

Longevity: 11 years

Posts: 7375

Reputation: 3 [+] [-]

Varggoth · Post 20-Nov-2011 02:19

[Quote] 

Опасный квартал / The Son of No One
«Serve. Protect. Lie.»
- Страна: США
Жанр: триллер, драма, криминал
Год выпуска: 2011
Продолжительность: 01:33:46
Перевод: Профессиональный (дублированный) [Лицензия]
Cубтитры: нет-Режиссер: Дито Монтиель / Dito Montiel
В ролях: Ченнинг Татум, Аль Пачино, Трэйси Морган, Кэти Холмс, Рэй Лиотта, Жюльет Бинош, Джеймс Рэнсон, Брайан Гилберт, Джэйк Черри, Симона Джой Джонс и др.
Описание: Главный герой — молодой полицейский, приписанный к участку в районе, где в основном проживает рабочий класс. Герой вырос в этом районе, и теперь, когда он вернулся сюда стражем закона, на поверхности оказался некий секрет, который может уничтожить как семью копа, так и его самого.-IMDB | KinoPoisk | SAMPLE-Качество видео: BDRip (The.Son.of.No.One.2011.1080p.GER.Blu-ray.AVC.DTS-HD.MA 5 1)
Формат видео: AVI
Видео: 720x304 (2.368:1), 23.976 fps, XviD MPEG-4 ~1771 kbps avg, 0.337 bit/pixel
Аудио RUS: 48 kHz, AC3 Dolby Digital, 3/2 (L,C,R,l,r) + LFE ch, ~448.00 kbps avg

MediaInfo

General
Complete name                    : C:\Downloads\uTorrent\The.Son.of.No.One.2011.D.BDRip-5H1.avi
Format                           : AVI
Format/Info                      : Audio Video Interleave
File size                        : 1.46 GiB
Duration                         : 1h 33mn
Overall bit rate                 : 2 228 Kbps
Writing application              : VirtualDubMod 1.5.10.2 (build 2542/release)
Writing library                  : VirtualDubMod build 2542/release
Video
ID                               : 0
Format                           : MPEG-4 Visual
Format profile                   : Advanced Simple@L5
Format settings, BVOP            : 1
Format settings, QPel            : No
Format settings, GMC             : No warppoints
Format settings, Matrix          : Custom
Codec ID                         : XVID
Codec ID/Hint                    : XviD
Duration                         : 1h 33mn
Bit rate                         : 1 771 Kbps
Width                            : 720 pixels
Height                           : 304 pixels
Display aspect ratio             : 2.35:1
Frame rate                       : 23.976 fps
Color space                      : YUV
Chroma subsampling               : 4:2:0
Bit depth                        : 8 bits
Scan type                        : Progressive
Compression mode                 : Lossy
Bits/(Pixel*Frame)               : 0.337
Stream size                      : 1.16 GiB (79%)
Writing library                  : XviD 72
Audio
ID                               : 1
Format                           : AC-3
Format/Info                      : Audio Coding 3
Mode extension                   : CM (complete main)
Codec ID                         : 2000
Duration                         : 1h 33mn
Bit rate mode                    : Constant
Bit rate                         : 448 Kbps
Channel(s)                       : 6 channels
Channel positions                : Front: L C R, Side: L R, LFE
Sampling rate                    : 48.0 KHz
Bit depth                        : 16 bits
Compression mode                 : Lossy
Stream size                      : 300 MiB (20%)
Alignment                        : Split accross interleaves
Interleave, duration             : 42 ms (1.00 video frame)
Interleave, preload duration     : 500 ms

Скриншоты

[Profile]  [PM] 
Display posts:    
Reply to topic

Current time is: 27-Nov 16:06

All times are UTC + 2



You cannot post new topics in this forum
You cannot reply to topics in this forum
You cannot edit your posts in this forum
You cannot delete your posts in this forum
You cannot vote in polls in this forum
You cannot attach files in this forum
You cannot download files in this forum